Доктор Стрэндж

Лицензия

Добыча

MVO

Дом дракона

1 сезон

Тор

Лицензия

Мэверик

Лицензия

Там, где раки поют

MVO

Властелин колец

1 сезон

Ultimate

pack

Рекомендуем

30

Repack

ВАЖНО

ВАЖНО

Ghostwire

RePack

jed

RePack

nioh2

RePack

RDR2

RePack

NEED FOR SPEED™ PAYBACK

RePack

скачать торрент

Кинопоиск HD

Острые козырьки 6 сезон

6 сезон

FAR CRY 6

RePack

скачать торрент

Лицензия

скачать торрент

MVO

1

1 сезон

скачать торрент

1 сезон

скачать торрент

Лицензия

  

Ковбои против пришельцев / Cowboys & Aliens (Джон Фавро) [2011 г., Фантастика, Боевик, Триллер, Вестерн, BDRip (1080p), DUB EXTENDED / лицензия + Оригинал]

Ковбои против пришельцев через торрент pb.wtf

Размер: 16.89 GB | Добавлен: 10 лет назад | Торрент скачан:98 раз
Смотреть онлайн | Скачать   

25-05-2012 20:36 Ковбои против пришельцев Скачать торрент  


Ковбои против пришельцев / Cowboys & Aliens
Год выпуска: 2011
Страна: США
Жанр: Фантастика, Боевик, Триллер, Вестерн
Продолжительность: 02:15:14
Перевод: Дубляж + Оригинал

Режиссер: Джон Фавро

В ролях: Оливия Уайлд, Сэм Рокуэлл, Дэниэл Крэйг, Харрисон Форд, Ноа Рингер, Пол Дано, Адам Бич, Ана Де Ла Регуера, Клэнси Браун, Кит Кэррадайн

Описание: 1873, Абсолюшен, штат Аризона. В эту глухую американскую провинцию прибывает потерявший память незнакомец. Единственный намек на его прошлое — это странные кандалы на одном из его запястий. Странник быстро узнает, что жители городка не рады незнакомцам, да и вообще они выходят на улицы лишь по приказу полковника Долархайда, правящего в этой местности железной рукой.
Вскоре странное поведение жителей объясняется. Периодически с неба обрушиваются ужасающие создания, которые забирают все, что им заблагорассудится и держат город в паническом страхе. Главный герой, постепенно вспоминающий о том, что с ним произошло, становится единственной надеждой города на спасение.

Качество: BDRip (1080p)
Формат: MKV
Видео кодек: AVC
Аудио кодек: AC3
Видео: AVC, 1920x800 (2.40:1), 23.976 fps, 12.6 Mbps (0.341 bit/pixel)
Аудио#1: DTS, 48.0 KHz, 6 ch, 1 510 Kbps, CBR (Russian)|Одноголосый закадровый, Ю. Сербин|
Аудио#2: AC-3, 48.0 KHz, 6 ch, 448 Kbps, CBR (Russian)|Дубляж +вставки|
Аудио#3: DTS, 48.0 KHz, 6 ch, 1 510 Kbps, CBR (Russian)|Одноголосый закадровый, Zamez|
Аудио#4: DTS, 48.0 KHz, 6 ch, 1 510 Kbps, CBR (English)
Субтитры: Russian, English

General
Unique ID : 217815066621142446847419371704718528554 (0xA3DDA7EA022B242393F7E2D13535102A)
Complete name : E:\Cowboys.and.Aliens.Extended.2011.BDRip.1080p.mkv
Format : Matroska
Format version : Version 2
File size : 16.9 GiB
Duration : 2h 15mn
Overall bit rate : 17.9 Mbps
Movie name : Ковбои против пришельцев. EXTENDED
Encoded date : UTC 2012-02-28 12:58:33
Writing application : mkvmerge v5.1.0 ('And so it goes') built on Nov 28 2011 23:58:28
Writing library : libebml v1.2.3 + libmatroska v1.3.0

Video
ID : 1
Format : AVC
Format/Info : Advanced Video Codec
Format profile : [email protected]
Format settings, CABAC : Yes
Format settings, ReFrames : 5 frames
Codec ID : V_MPEG4/ISO/AVC
Duration : 2h 15mn
Bit rate : 12.6 Mbps
Width : 1 920 pixels
Height : 800 pixels
Display aspect ratio : 2.40:1
Frame rate : 23.976 fps
Color space : YUV
Chroma subsampling : 4:2:0
Bit depth : 8 bits
Scan type : Progressive
Bits/(Pixel*Frame) : 0.341
Stream size : 11.9 GiB (70%)
Title : Ковбои против пришельцев. EXTENDED
Writing library : x264 core 119 r2106 07efeb4
Encoding settings : cabac=1 / ref=5 / deblock=1:-3:-3 / analyse=0x3:0x113 / me=tesa / subme=11 / psy=1 / psy_rd=1.00:0.00 / mixed_ref=1 / me_range=16 / chroma_me=1 / trellis=2 / 8x8dct=1 / cqm=0 / deadzone=21,11 / fast_pskip=0 / chroma_qp_offset=-2 / threads=12 / sliced_threads=0 / nr=0 / decimate=0 / interlaced=0 / bluray_compat=0 / constrained_intra=0 / bframes=6 / b_pyramid=2 / b_adapt=2 / b_bias=0 / direct=3 / weightb=1 / open_gop=0 / weightp=2 / keyint=250 / keyint_min=23 / scenecut=40 / intra_refresh=0 / rc=crf / mbtree=0 / crf=16.5 / qcomp=0.50 / qpmin=0 / qpmax=69 / qpstep=4 / ip_ratio=1.40 / pb_ratio=1.30 / aq=1:0.80
Language : English
Default : Yes
Forced : No
Matrix coefficients : BT.709-5, BT.1361, IEC 61966-2-4 709, SMPTE RP177

Audio #1
ID : 2
Format : AC-3
Format/Info : Audio Coding 3
Mode extension : CM (complete main)
Format settings, Endianness : Big
Codec ID : A_AC3
Duration : 2h 15mn
Bit rate mode : Constant
Bit rate : 448 Kbps
Channel(s) : 6 channels
Channel positions : Front: L C R, Side: L R, LFE
Sampling rate : 48.0 KHz
Bit depth : 16 bits
Compression mode : Lossy
Stream size : 433 MiB (3%)
Title : AC3 - Дубляж
Language : Russian
Default : Yes
Forced : No

Audio #2
ID : 3
Format : DTS
Format/Info : Digital Theater Systems
Codec ID : A_DTS
Duration : 2h 15mn
Bit rate mode : Constant
Bit rate : 1 510 Kbps
Channel(s) : 6 channels
Channel positions : Front: L C R, Side: L R, LFE
Sampling rate : 48.0 KHz
Bit depth : 24 bits
Compression mode : Lossy
Stream size : 1.43 GiB (8%)
Title : DTS - AVO (Ю. Сербин)
Language : Russian
Default : No
Forced : No

Audio #3
ID : 4
Format : DTS
Format/Info : Digital Theater Systems
Codec ID : A_DTS
Duration : 2h 15mn
Bit rate mode : Constant
Bit rate : 1 510 Kbps
Channel(s) : 6 channels
Channel positions : Front: L C R, Side: L R, LFE
Sampling rate : 48.0 KHz
Bit depth : 24 bits
Compression mode : Lossy
Stream size : 1.43 GiB (8%)
Title : DTS - VO (Zamez)
Language : Russian
Default : No
Forced : No

Audio #4
ID : 5
Format : DTS
Format/Info : Digital Theater Systems
Codec ID : A_DTS
Duration : 2h 15mn
Bit rate mode : Constant
Bit rate : 1 510 Kbps
Channel(s) : 6 channels
Channel positions : Front: L C R, Side: L R, LFE
Sampling rate : 48.0 KHz
Bit depth : 24 bits
Compression mode : Lossy
Stream size : 1.43 GiB (8%)
Title : DTS
Language : English
Default : No
Forced : No

Text #1
ID : 6
Format : UTF-8
Codec ID : S_TEXT/UTF8
Codec ID/Info : UTF-8 Plain Text
Title : Voronine
Language : Russian
Default : No
Forced : No

Text #2
ID : 7
Format : UTF-8
Codec ID : S_TEXT/UTF8
Codec ID/Info : UTF-8 Plain Text
Title : SDH
Language : English
Default : No
Forced : No

Menu
00:00:00.000 : en:Chapter 01
00:07:43.296 : en:Chapter 02
00:17:40.726 : en:Chapter 03
00:25:22.812 : en:Chapter 04
00:31:17.917 : en:Chapter 05
00:41:30.529 : en:Chapter 06
00:49:32.177 : en:Chapter 07
00:57:07.006 : en:Chapter 08
01:02:31.205 : en:Chapter 09
01:06:06.629 : en:Chapter 10
01:12:43.567 : en:Chapter 11
01:17:19.634 : en:Chapter 12
01:23:04.395 : en:Chapter 13
01:28:47.113 : en:Chapter 14
01:40:42.870 : en:Chapter 15
01:45:32.701 : en:Chapter 16
01:49:28.478 : en:Chapter 17
01:55:37.722 : en:Chapter 18
02:02:14.660 : en:Chapter 19
02:11:00.227 : en:Chapter 20




Скачать Ковбои против пришельцев через торрент http://lostpic.net/images/3f040f474290012270eb783296baa5fe.png Скачать, смотреть онлайн Ковбои против пришельцев бесплантно в хорошем качестве Описание: 1873, Абсолюшен, штат Аризона. В эту глухую американскую провинцию прибывает потерявший память незнакомец. Единственный намек на ... 10 10 3
Info! Золотая раздача, скачанное не засчитывается.
Торрент: Зарегистрирован [2012-05-25 20:36] · скачан: 98 раз
Статус: √ проверено
Размер: 16.89 GB
Как cкачать? Как скачать Ковбои против пришельцев через торрент | UTorrent

28-11-2019 20:33  


Отключить вcю реклaмy на сайте, в т.ч. и в плеере онлайн просмотра!

26-05-2012 08:28 Ковбои против пришельцев Скачать торрент  

спасибо!



15-06-2012 13:37 Ковбои против пришельцев Скачать торрент  

Хороший фильм. Когда вышел - ходил в кинотеатр.



    Дорогой пользователь! Огромная просьба, поблагодарите релизера, оцените раздачу и оставьте свои комментарий, если Вы скачали Ковбои против пришельцев через торрент бесплатно!!
    Комментировать посты могут только пользователи прошедшие не сложную регистрацию
    Показать сообщения:    


    Ковбои против пришельцев через торрент
    Скачать бесплатно Ковбои против пришельцев
    Ковбои против пришельцев скачать торрент
    Ковбои против пришельцев смотреть онлайн
    Cкачать фильм Ковбои против пришельцев бесплатно
    Ковбои против пришельцев скачать торрент в хорошем качестве
    Ковбои против пришельцев смотреть онлайн бесплатно в хорошем качестве
    Вы не можете начинать темы
    Вы не можете отвечать на сообщения
    Вы не можете редактировать свои сообщения
    Вы не можете удалять свои сообщения
    Вы не можете голосовать в опросах
    Вы не можете прикреплять файлы к сообщениям
    Вы можете скачивать файлы