2 сезон

iTunes

1 сезон

1

iTunes

iTunes

iTunes

1 сезон

RePack

30

ИГРА 18+

pack

ВАЖНО

!!Акция!!

Alien_RageХит недели

RePack

MK11
pack

Забери бонус

RePack

jed

!!Акция!!

Alien_Rage

RePack

fifa19

RePack

Assassins Creed: Odyssey

RePack

NEED FOR SPEED™ PAYBACK

4 сезон

9 сезон

Бесстыжие 9 сезон

Все сериалы

все сериалы на PB.wtf

RePack

FAR CRY 5
  

Вышибала / Goon (Майкл Даус) [2011 г., комедия, спорт, BDRip (1080p), DUB (лицензия)+Оригинал ] pb.wtf

Вышибала через торрент pb.wtf

Размер: 10.25 GB | Добавлен: 8 лет 5 мес. назад | Торрент скачан:28 раз
Скачать  

26-05-2012 05:53 Вышибала Скачать торрент  


Вышибала / Goon
«Схвати удачу за хвост!»
Год выпуска: 2011
Страна: США, Канада
Жанр: комедия, спорт
Продолжительность: 01:31:40
Перевод: Дубляж (Лицензия) + Оригинал

Режиссер: Майкл Даус

В ролях: Шонн Уильям Скотт, Джей Барушель, Лив Шрайбер, Юджин Леви, Элисон Пилл, Марк-Андре Гронден, Ким Коутс, Николас Кэмпбелл, Ричард Кларкин, Джонатан Черри

Описание: Даг – простой вышибала, работающий в провинциальном баре. Однажды, ввязавшись в драку на хоккейном матче с одним из игроков, он попадает в поле зрения тренера команды мастеров. Ему срочно нужен игрок, который сможет защитить на льду ведущего нападающего клуба. Даг не умеет стоять на коньках, но этому можно научиться, зато в драке ему нет равных! У команды-главного конкурента есть свой тафгай, Росс «Босс-Мать-Его» Риа, от одного вида которого дрожит вся хоккейная лига. Дагу и Россу предстоит сойтись в одном матче. Наш герой, с помощью своего друга, делает головокружительную карьеру, сплотив вокруг себя всю команду, и завоевывает любовь самой лучшей девушки на свете. С точки зрения Дага, конечно

Качество: BDRip (1080p)Источник: Goon 2012 1080p Blu-ray AVC DTS-HD MA 5.1-EiseHD
Формат: MKV
Видео кодек: H.26x
Аудио кодек: DTS
Видео: 1920x1080 at 23.976 fps, x264, ~10400 kbps avg
Аудио#1: Russian: 48 kHz/16-bit, DTS 5.1, ~1536.00 kbps avg |Дубляж, Blu-ray|
Аудио#2: Russian: 48 kHz/24-bit, DTS 5.1, ~1536.00 kbps avg |Одноголосый закадровый, А.Киреев, по тексту Гоблина|
Аудио#3: Russian: 48 kHz, AC3, 3/2 (L,C,R,l,r) + LFE ch, ~384.00 kbps avg |Одноголосый закадровый, А.Карповский|
Аудио#4: English: 48 kHz/24-bit, DTS 5.1, ~1536.00 kbps avg
Субтитры: Russian, English
Релиз от:
General
Unique ID : 203588533636527201625607310851211411093 (0x9929B9AEFE7B3FE4A8A320D5E8763E95)
Complete name : E:\Goon.2011.1080p.BluRay.3xRus.2xEng.HDCLUB.mkv
Format : Matroska
Format version : Version 2
File size : 10.2 GiB
Duration : 1h 32mn
Overall bit rate : 15.9 Mbps
Movie name : Goon (2011) - Release for HDCLUB
Encoded date : UTC 2012-05-25 14:45:12
Writing application : mkvmerge v5.5.0 ('Healer') built on Apr 6 2012 21:43:24
Writing library : libebml v1.2.3 + libmatroska v1.3.0

Video
ID : 1
Format : AVC
Format/Info : Advanced Video Codec
Format profile : High@L4.1
Format settings, CABAC : Yes
Format settings, ReFrames : 4 frames
Codec ID : V_MPEG4/ISO/AVC
Duration : 1h 32mn
Bit rate : 10.5 Mbps
Width : 1 920 pixels
Height : 1 080 pixels
Display aspect ratio : 16:9
Frame rate : 23.976 fps
Color space : YUV
Chroma subsampling : 4:2:0
Bit depth : 8 bits
Scan type : Progressive
Bits/(Pixel*Frame) : 0.210
Stream size : 6.74 GiB (66%)
Title : Release for HDCLUB
Writing library : x264 core 124 r2197kMod 69a0443
Encoding settings : cabac=1 / ref=4 / deblock=1:-3:-3 / analyse=0x3:0x113 / me=umh / subme=11 / psy=1 / fade_compensate=0.00 / psy_rd=0.80:0.00 / mixed_ref=1 / me_range=16 / chroma_me=1 / trellis=2 / 8x8dct=1 / cqm=0 / deadzone=21,11 / fast_pskip=0 / chroma_qp_offset=-2 / threads=6 / sliced_threads=0 / nr=0 / decimate=0 / interlaced=0 / bluray_compat=0 / constrained_intra=0 / bframes=8 / b_pyramid=2 / b_adapt=2 / b_bias=0 / direct=3 / weightb=1 / open_gop=0 / weightp=2 / keyint=250 / keyint_min=23 / scenecut=40 / intra_refresh=0 / rc=crf / mbtree=0 / crf=19.0000 / qcomp=0.70 / qpmin=0 / qpmax=69 / qpstep=4 / ip_ratio=1.30 / pb_ratio=1.20 / aq=1:0.90
Language : English
Default : Yes
Forced : No

Audio #1
ID : 2
Format : DTS
Format/Info : Digital Theater Systems
Codec ID : A_DTS
Duration : 1h 32mn
Bit rate mode : Constant
Bit rate : 1 510 Kbps
Channel(s) : 6 channels
Channel positions : Front: L C R, Side: L R, LFE
Sampling rate : 48.0 KHz
Bit depth : 16 bits
Compression mode : Lossy
Stream size : 995 MiB (9%)
Title : DTS 5.1 @ 1536 kbps - Дубляж, BluRay
Language : Russian
Default : Yes
Forced : No

Audio #2
ID : 3
Format : DTS
Format/Info : Digital Theater Systems
Codec ID : A_DTS
Duration : 1h 32mn
Bit rate mode : Constant
Bit rate : 1 510 Kbps
Channel(s) : 6 channels
Channel positions : Front: L C R, Side: L R, LFE
Sampling rate : 48.0 KHz
Bit depth : 24 bits
Compression mode : Lossy
Stream size : 995 MiB (9%)
Title : DTS 5.1 @ 1536 kbps - Одноголосый закадровый, А.Киреев
Language : Russian
Default : No
Forced : No

Audio #3
ID : 4
Format : AC-3
Format/Info : Audio Coding 3
Mode extension : CM (complete main)
Format settings, Endianness : Big
Codec ID : A_AC3
Duration : 1h 32mn
Bit rate mode : Constant
Bit rate : 384 Kbps
Channel(s) : 6 channels
Channel positions : Front: L C R, Side: L R, LFE
Sampling rate : 48.0 KHz
Bit depth : 16 bits
Compression mode : Lossy
Stream size : 253 MiB (2%)
Title : DD 5.1 @ 384 kbps - Одноголосый закадровый, А.Карповский
Language : Russian
Default : No
Forced : No

Audio #4
ID : 5
Format : DTS
Format/Info : Digital Theater Systems
Codec ID : A_DTS
Duration : 1h 32mn
Bit rate mode : Constant
Bit rate : 1 510 Kbps
Channel(s) : 6 channels
Channel positions : Front: L C R, Side: L R, LFE
Sampling rate : 48.0 KHz
Bit depth : 24 bits
Compression mode : Lossy
Stream size : 995 MiB (9%)
Title : DTS 5.1 @ 1536 kbps
Language : English
Default : No
Forced : No

Audio #5
ID : 6
Format : AC-3
Format/Info : Audio Coding 3
Mode extension : CM (complete main)
Format settings, Endianness : Big
Codec ID : A_AC3
Duration : 1h 32mn
Bit rate mode : Constant
Bit rate : 224 Kbps
Channel(s) : 2 channels
Channel positions : Front: L R
Sampling rate : 48.0 KHz
Bit depth : 16 bits
Compression mode : Lossy
Stream size : 148 MiB (1%)
Title : DD 2.0 @ 224 kbps - Commentary
Language : English
Default : No
Forced : No

Text #1
ID : 7
Format : UTF-8
Codec ID : S_TEXT/UTF8
Codec ID/Info : UTF-8 Plain Text
Language : Russian
Default : No
Forced : No

Text #2
ID : 8
Format : UTF-8
Codec ID : S_TEXT/UTF8
Codec ID/Info : UTF-8 Plain Text
Language : English
Default : No
Forced : No

Menu
00:00:00.000 : en:True Story
00:06:56.625 : en:Dougie
00:15:46.529 : en:Halifax
00:22:25.970 : en:Initiation
00:29:19.508 : en:Listen Up
00:37:32.750 : en:You Look So Pretty
00:44:20.908 : en:C. Keleki's
00:56:03.235 : en:Game Faces
01:03:24.718 : en:Nice to Meet You
01:11:15.480 : en:Eva
01:19:09.912 : en:Penalty Box
01:24:46.248 : en:End Credits

Рип от CtrlHD! :ad: pb.wtf



Скачать Вышибала через торрент http://lostpic.net/images/7f4378daa109537f0c71a341baaa639d.jpg Скачать фильм Вышибала через торрент бесплантно в хорошем качестве Описание: Даг – простой вышибала, работающий в провинциальном баре. Однажды, ввязавшись в драку на хоккейном матче с одним из игроков, он ... 10 10 2
Info! Золотая раздача, скачанное не засчитывается.
Торрент: Зарегистрирован [2012-05-26 05:53] · скачан: 28 раз
Статус: √ проверено
Размер: 10.25 GB
Как cкачать? Как скачать Вышибала через торрент | qTorrent

% Раздел Тема Автор DL S | L
Фильмы (Blu-ray, BD-Remux, HDDVD) [ 24.73 GB ] Вышибала / Goon [2011 BD-Remux DUB + Оригинал+MVO Sub ] AlexKa Скачать
1 | 0


Последний раз редактировалось: ~Relizer~ (2012-05-26 06:09), всего редактировалось 1 раз

28-11-2019 20:33  

Отключить всю рекламу на сайте

26-05-2012 06:06 Вышибала Скачать торрент  

720 не будет от меня ждите пока кто-то другой выложит) pb.wtf



26-05-2012 10:11 Вышибала Скачать торрент  

Скорости нет. на 0 стоит
P.S. загрузка пошла только скорость не радует pb.wtf



26-05-2012 21:46 Вышибала Скачать торрент  

будетpb.wtf



03-06-2012 22:33 Вышибала Скачать торрент  

скорости совсем нет! встаньте кто-нить на раздачу! плиз!!pb.wtf



08-06-2012 21:55 Вышибала Скачать торрент  

встанте на раздачу плиз!pb.wtf



05-08-2012 03:26 Вышибала Скачать торрент  

Гоблина Пучкова Удаляйте всегда из списка! Всегда отмасферу своей Б.искрой мля портит! ХИ -ХИ DOC. Отдыхает!!!!!!!!!!!!!!!!!!!!!!!!pb.wtf



06-02-2018 06:17 Вышибала Скачать торрент  

Благодарю.pb.wtf



    Дорогой пользователь! Огромная просьба, поблагодарите релизера, оцените раздачу и оставьте свои комментарий, если Вы скачали Вышибала через торрент бесплатно! Внесите свою лепту в развитие PiratBit!
    Комментировать посты могут только пользователи прошедшие не сложную регистрацию
    Показать сообщения:    

    Вышибала через торрент
    Скачать бесплатно Вышибала
    Вышибала скачать торрент
    Вышибала смотреть онлайн
    Cкачать фильм Вышибала бесплатно
    Вышибала скачать торрент в хорошем качестве
    Вышибала смотреть онлайн бесплатно в хорошем качестве


    Вы не можете начинать темы
    Вы не можете отвечать на сообщения
    Вы не можете редактировать свои сообщения
    Вы не можете удалять свои сообщения
    Вы не можете голосовать в опросах
    Вы не можете прикреплять файлы к сообщениям
    Вы можете скачивать файлы