Доктор Стрэндж

Лицензия

Добыча

MVO

Дом дракона

1 сезон

Тор

Лицензия

Мэверик

Лицензия

Там, где раки поют

MVO

Властелин колец

1 сезон

Ultimate

pack

Рекомендуем

30

Repack

ВАЖНО

ВАЖНО

Ghostwire

RePack

jed

RePack

nioh2

RePack

RDR2

RePack

NEED FOR SPEED™ PAYBACK

RePack

скачать торрент

Кинопоиск HD

Острые козырьки 6 сезон

6 сезон

FAR CRY 6

RePack

скачать торрент

Лицензия

скачать торрент

MVO

1

1 сезон

скачать торрент

1 сезон

скачать торрент

Лицензия

  

Железная леди / The Iron Lady (Филлида Ллойд) [2011 г., драма, биография, BDRip (720p), DUB + Оригинал]

Железная леди через торрент pb.wtf

Размер: 5.76 GB | Добавлен: 10 лет назад | Торрент скачан:108 раз
Смотреть онлайн Железная леди | Скачать   

27-05-2012 07:17 Железная леди Скачать торрент  


Железная леди / The Iron Lady
Год выпуска: 2011
Страна: Франция, Великобритания / Film4, UK Film Council, Canal+
Жанр: драма, биография
Продолжительность: 01:44:58
Перевод: Дубляж + Оригинал

Режиссер: Филлида Ллойд

В ролях: Мэрил Стрип, Джим Броудбент, Сьюзэн Браун, Элис Да Кунья, Айэйн Глен, Александра Роач, Эмма Дьюхерст, Оливия Колман

Описание: События картины развернутся в 1982 году. Тогда премьер-министр Великобритании Маргарет Тэтчер пыталась спасти свою карьеру накануне Фолклендской войны.

Качество: BDRip (720p)
Формат: MKV
Видео кодек: AVC
Аудио кодек: AC3
Видео: AVC, 1280x544 (2.35:1), 23.976 fps, 5 315 Kbps (0.318 bit/pixel)
Аудио#1: AC-3, 48.0 KHz, 6 ch, 384 Kbps, CBR (Russian)
Аудио#2: DTS, 48.0 KHz, 6 ch, 1 510 Kbps, CBR (Russian) Ю.Сербин
Аудио#3: AC-3, 48.0 KHz, 6 ch, 640 Kbps, CBR (English)
Субтитры: Russian [R5, voronine], English

General
Unique ID : 209521382987432092075806982893581078895 (0x9DA059BD8BC596E98B1557303B83916F)
Complete name : E:\Zheleznaja.ledi.2011.D.BDRip.720p.[uniongang.tv].mkv
Format : Matroska
Format version : Version 2
File size : 5.76 GiB
Duration : 1h 44mn
Overall bit rate : 7 850 Kbps
Movie name : Zheleznaja.ledi.2011.D.BDRip.720p.[uniongang.tv] by sstonecold
Encoded date : UTC 2012-05-26 11:50:29
Writing application : mkvmerge v5.2.0 ('I can't explain') built on Dec 18 2011 18:12:03
Writing library : libebml v1.2.3 + libmatroska v1.3.0

Video
ID : 1
Format : AVC
Format/Info : Advanced Video Codec
Format profile : [email protected]
Format settings, CABAC : Yes
Format settings, ReFrames : 12 frames
Codec ID : V_MPEG4/ISO/AVC
Duration : 1h 44mn
Bit rate : 5 315 Kbps
Width : 1 280 pixels
Height : 544 pixels
Display aspect ratio : 2.35:1
Frame rate : 23.976 fps
Color space : YUV
Chroma subsampling : 4:2:0
Bit depth : 8 bits
Scan type : Progressive
Bits/(Pixel*Frame) : 0.318
Stream size : 3.78 GiB (66%)
Title : Zheleznaja.ledi.2011.D.BDRip.720p.[uniongang.tv] by sstonecold
Writing library : x264 core 122 r2184 5c85e0a
Encoding settings : cabac=1 / ref=12 / deblock=1:-3:-3 / analyse=0x3:0x113 / me=tesa / subme=11 / psy=1 / psy_rd=1.05:0.01 / mixed_ref=1 / me_range=32 / chroma_me=1 / trellis=2 / 8x8dct=1 / cqm=0 / deadzone=21,11 / fast_pskip=0 / chroma_qp_offset=-3 / threads=12 / sliced_threads=0 / nr=0 / decimate=1 / interlaced=0 / bluray_compat=0 / constrained_intra=0 / bframes=6 / b_pyramid=2 / b_adapt=2 / b_bias=0 / direct=3 / weightb=1 / open_gop=0 / weightp=2 / keyint=240 / keyint_min=23 / scenecut=40 / intra_refresh=0 / rc_lookahead=80 / rc=2pass / mbtree=1 / bitrate=5315 / ratetol=1.0 / qcomp=0.60 / qpmin=0 / qpmax=69 / qpstep=4 / cplxblur=20.0 / qblur=0.5 / vbv_maxrate=40000 / vbv_bufsize=40000 / nal_hrd=none / ip_ratio=1.40 / aq=1:1.00 / zones=144425,151009,b=0.1
Language : English
Default : No
Forced : No

Audio #1
ID : 2
Format : AC-3
Format/Info : Audio Coding 3
Mode extension : CM (complete main)
Format settings, Endianness : Big
Codec ID : A_AC3
Duration : 1h 44mn
Bit rate mode : Constant
Bit rate : 384 Kbps
Channel(s) : 6 channels
Channel positions : Front: L C R, Side: L R, LFE
Sampling rate : 48.0 KHz
Bit depth : 16 bits
Compression mode : Lossy
Stream size : 288 MiB (5%)
Title : R5
Language : Russian
Default : Yes
Forced : No

Audio #2
ID : 3
Format : DTS
Format/Info : Digital Theater Systems
Codec ID : A_DTS
Duration : 1h 44mn
Bit rate mode : Constant
Bit rate : 1 510 Kbps
Channel(s) : 6 channels
Channel positions : Front: L C R, Side: L R, LFE
Sampling rate : 48.0 KHz
Bit depth : 24 bits
Compression mode : Lossy
Stream size : 1.11 GiB (19%)
Title : Сербин
Language : Russian
Default : No
Forced : No

Audio #3
ID : 4
Format : AC-3
Format/Info : Audio Coding 3
Mode extension : CM (complete main)
Format settings, Endianness : Big
Codec ID : A_AC3
Duration : 1h 44mn
Bit rate mode : Constant
Bit rate : 640 Kbps
Channel(s) : 6 channels
Channel positions : Front: L C R, Side: L R, LFE
Sampling rate : 48.0 KHz
Bit depth : 16 bits
Compression mode : Lossy
Stream size : 481 MiB (8%)
Language : English
Default : No
Forced : No

Text #1
ID : 5
Format : UTF-8
Codec ID : S_TEXT/UTF8
Codec ID/Info : UTF-8 Plain Text
Title : Voronine
Language : Russian
Default : Yes
Forced : No

Text #2
ID : 6
Format : UTF-8
Codec ID : S_TEXT/UTF8
Codec ID/Info : UTF-8 Plain Text
Language : English
Default : No
Forced : No

Text #3
ID : 7
Format : UTF-8
Codec ID : S_TEXT/UTF8
Codec ID/Info : UTF-8 Plain Text
Title : SDH
Language : English
Default : No
Forced : No

Menu
00:00:00.000 : en:Chapter 01
00:03:34.422 : en:Chapter 02
00:08:15.494 : en:Chapter 03
00:15:19.877 : en:Chapter 04
00:23:51.430 : en:Chapter 05
00:30:36.334 : en:Chapter 06
00:37:03.554 : en:Chapter 07
00:44:10.689 : en:Chapter 08
00:50:20.017 : en:Chapter 09
00:56:51.449 : en:Chapter 10
01:02:38.087 : en:Chapter 11
01:09:52.813 : en:Chapter 12
01:18:29.287 : en:Chapter 13
01:24:49.751 : en:Chapter 14
01:31:05.126 : en:Chapter 15
01:38:43.584 : en:Chapter 16




Скачать Железная леди через торрент http://lostpic.net/images/34a6bc169bfd100932898004914f91ac.png Скачать, смотреть онлайн Железная леди бесплантно в хорошем качестве Описание: События картины развернутся в 1982 году. Тогда премьер-министр Великобритании Маргарет Тэтчер пыталась спасти свою карьеру ... 10 10 2
Info! Золотая раздача, скачанное не засчитывается.
Торрент: Зарегистрирован [2012-05-27 07:17] · скачан: 108 раз
Статус: √ проверено
Размер: 5.76 GB
Как cкачать? Как скачать Железная леди через торрент | UTorrent

28-11-2019 20:33  

Отключить вcю реклaмy на сайте

27-05-2012 09:28 Железная леди Скачать торрент  

супер



30-05-2012 07:23 Железная леди Скачать торрент  

спасибо!



    Дорогой пользователь! Огромная просьба, поблагодарите релизера, оцените раздачу и оставьте свои комментарий, если Вы скачали Железная леди через торрент бесплатно!!
    Комментировать посты могут только пользователи прошедшие не сложную регистрацию
    Показать сообщения:    


    Железная леди через торрент
    Скачать бесплатно Железная леди
    Железная леди скачать торрент
    Железная леди смотреть онлайн
    Cкачать фильм Железная леди бесплатно
    Железная леди скачать торрент в хорошем качестве
    Железная леди смотреть онлайн бесплатно в хорошем качестве
    Вы не можете начинать темы
    Вы не можете отвечать на сообщения
    Вы не можете редактировать свои сообщения
    Вы не можете удалять свои сообщения
    Вы не можете голосовать в опросах
    Вы не можете прикреплять файлы к сообщениям
    Вы можете скачивать файлы