Ссылка на приватное зеркало нашего сайта всего за 1$. Внимание количество ограничено!!!

2 сезон

iTunes

1 сезон

1

iTunes

iTunes

iTunes

1 сезон

RePack

30

ИГРА 18+

pack

ВАЖНО

!!Акция!!

Alien_RageХит недели

RePack

MK11
pack

Забери бонус

RePack

jed

!!Акция!!

Alien_Rage

RePack

fifa19

RePack

Assassins Creed: Odyssey

RePack

NEED FOR SPEED™ PAYBACK

4 сезон

9 сезон

Бесстыжие 9 сезон

Все сериалы

все сериалы на PB.wtf

RePack

FAR CRY 5
  

Призрачный гонщик 2 / Ghost Rider: Spirit of Vengeance (Марк Невелдайн, Брайан Тейлор) [2011, фэнтези, боевик, триллер, BDRip-720p ] DUB |лицензия| pb.wtf

Призрачный гонщик 2 через торрент pb.wtf

Размер: 4.67 GB | Добавлен: 8 лет 5 мес. назад | Торрент скачан:737 раз
Скачать  

28-05-2012 09:42 Призрачный гонщик 2 Скачать торрент  

Призрачный гонщик 2 / Ghost Rider: Spirit of Vengeance




| Год выпуска: 2012
| Страна: США
| Жанр: Фэнтези, боевик, триллер
| Продолжительность: 01:35:31
| Перевод: Дублированный [лицензия]
| Режиссер: Марк Невелдайн / Mark Neveldine, Брайан Тейлор / Brian Taylor
| В ролях: Николас Кейдж, Кьяран Хайндс, Виоланте Плачидо, Джонни Витуорт, Кристофер Ламберт, Идрис Эльба, Фергус Риордан, Спенсер Уидлинг, Сорин Тофан, Яцек Коман


| Описание: Действие разворачивается на задворках Восточной Европы, где главный герой Джонни Блэйз безуспешно пытается справиться со своим проклятием. Его принимает на работу некая секта, которая пытается заполучить дьявола в тот момент, когда он пытается вселиться в тело его смертного сына на дне рождения мальчика.


| Качество: BDRip [720p]
| Формат: MKV
| Видео кодек: H.264
| Аудио кодек: AC3
| Видео: 1280x534 (2.40:1), 23.976 fps, AVC, ~5033 Kbps, 0.307 bit/pix
| Аудио 1: AC3; 448 Kbps; 48.0 kHz (5.1 ch) | Русский
| Аудио 2: AC3; DTS; 1510 Kbps; 48.0 kHz (5.1 ch) | Английский
| Субтитры: Rus, eng
| Сэмпл


Формат : Matroska
Версия формата : Version 2
Размер файла : 4,67 Гбайт
Продолжительность : 1 ч. 35 м.
Общий поток : 6992 Кбит/сек
Название фильма :
Дата кодирования : UTC 2012-05-28 05:45:32
Программа кодирования : mkvmerge v5.5.0 ('Healer') built on Apr 6 2012 21:43:24
Библиотека кодирования : libebml v1.2.3 + libmatroska v1.3.0

Видео
Идентификатор : 1
Формат : AVC
Формат/Информация : Advanced Video Codec
Профиль формата : High@L4.1
Параметр CABAC формата : Да
Параметр ReFrames формата : 12 кадров
Идентификатор кодека : V_MPEG4/ISO/AVC
Продолжительность : 1 ч. 35 м.
Битрейт : 5033 Кбит/сек
Ширина : 1280 пикселей
Высота : 534 пикселя
Соотношение сторон : 2,40:1
Частота кадров : 23,976 кадра/сек
Цветовое пространство : YUV
Субдискретизация насыщенности : 4:2:0
Битовая глубина : 8 бит
Тип развёртки : Прогрессивная
Бит/(Пиксели*Кадры) : 0.307
Размер потока : 3,27 Гбайт (70%)
Заголовок : Prizrachnyj.gonwik.2.2012.D.BDRip.720p.ELEKTRI4KA
Библиотека кодирования : x264 core 120 r2146 bcd41db
Настройки программы : cabac=1 / ref=12 / deblock=1:-3:-3 / analyse=0x3:0x113 / me=umh / subme=10 / psy=1 / psy_rd=1.10:0.15 / mixed_ref=1 / me_range=32 / chroma_me=1 / trellis=2 / 8x8dct=1 / cqm=0 / deadzone=21,11 / fast_pskip=0 / chroma_qp_offset=-2 / threads=12 / sliced_threads=0 / nr=0 / decimate=1 / interlaced=0 / bluray_compat=0 / constrained_intra=0 / bframes=6 / b_pyramid=2 / b_adapt=2 / b_bias=0 / direct=3 / weightb=1 / open_gop=0 / weightp=2 / keyint=250 / keyint_min=23 / scenecut=40 / intra_refresh=0 / rc_lookahead=60 / rc=2pass / mbtree=0 / bitrate=5033 / ratetol=1.0 / qcomp=0.60 / qpmin=0 / qpmax=69 / qpstep=4 / cplxblur=20.0 / qblur=0.5 / vbv_maxrate=40000 / vbv_bufsize=30000 / nal_hrd=none / ip_ratio=1.40 / pb_ratio=1.30 / aq=1:0.80
Язык : English
Default : Да
Forced : Нет

Аудио #1
Идентификатор : 2
Формат : AC-3
Формат/Информация : Audio Coding 3
Расширение режима : CM (complete main)
Параметр Endianness формата : Big
Идентификатор кодека : A_AC3
Продолжительность : 1 ч. 35 м.
Вид битрейта : Постоянный
Битрейт : 448 Кбит/сек
Каналы : 6 каналов
Расположение каналов : Front: L C R, Side: L R, LFE
Частота : 48,0 КГц
Битовая глубина : 16 бит
Метод сжатия : С потерями
Размер потока : 306 Мбайт (6%)
Язык : Russian
Default : Нет
Forced : Нет

Аудио #2
Идентификатор : 3
Формат : DTS
Формат/Информация : Digital Theater Systems
Идентификатор кодека : A_DTS
Продолжительность : 1 ч. 35 м.
Вид битрейта : Постоянный
Битрейт : 1510 Кбит/сек
Каналы : 6 каналов
Расположение каналов : Front: L C R, Side: L R, LFE
Частота : 48,0 КГц
Битовая глубина : 24 бит
Метод сжатия : С потерями
Размер потока : 1,01 Гбайт (22%)
Язык : English
Default : Нет
Forced : Нет

Текст #1
Идентификатор : 4
Формат : UTF-8
Идентификатор кодека : S_TEXT/UTF8
Идентификатор кодека/Информация : UTF-8 Plain Text
Язык : Russian
Default : Нет
Forced : Нет

Текст #2
Идентификатор : 5
Формат : UTF-8
Идентификатор кодека : S_TEXT/UTF8
Идентификатор кодека/Информация : UTF-8 Plain Text
Язык : English
Default : Нет
Forced : Нет
скриншот  
pb.wtf



Скачать Призрачный гонщик 2 через торрент http://pic.kartinco.top/images/2000/qyqldvm4yt.png Скачать фильм Призрачный гонщик 2 через торрент бесплантно в хорошем качестве Описание: Действие разворачивается на задворках Восточной Европы, где главный герой Джонни Блэйз безуспешно пытается справиться со своим ... 10 10 3
Info! Золотая раздача, скачанное не засчитывается.
Торрент: Зарегистрирован [2012-05-28 09:42] · скачан: 737 раз
Статус: √ проверено
Размер: 4.67 GB
Как cкачать? Как скачать Призрачный гонщик 2 через торрент | qTorrent

% Раздел Тема Автор DL S | L
Фильмы (Blu-ray, BD-Remux, HDDVD) [ 17.18 GB ] Призрачный гонщик 2 / Ghost Rider: Spirit of Vengeance [2011 BDRemux DUB ] Mr. Freeman Скачать
1 | 0
3D Фильмы [ 7.5 GB ] Призрачный гонщик 2 3D / Ghost Rider: Spirit of Vengeance 3D [2011 BDRip DUB ] Anaglyph red'cyan serega768 Скачать
1 | 0
Фильмы 2011 [ 1.45 GB ] Призрачный гонщик 2 / Ghost Rider: Spirit of Vengeance [2011 BDRip DUB от HQ-ViDEO] ~Relizer~ Скачать
1 | 0
Фильмы 2011 [ 1.46 GB ] Призрачный гонщик 2 / Ghost Rider: Spirit of Vengeance [2011 BDRip-AVC] DUB |лицензия| Mr. Freeman Скачать
1 | 0
Фильмы 2011 [ 1.46 GB ] Призрачный гонщик 2 / Ghost Rider: Spirit of Vengeance [2011 HDRip DUB ] Mr. Freeman Скачать
1 | 0

28-11-2019 20:33  

Отключить всю рекламу на сайте

29-05-2012 22:14 Призрачный гонщик 2 Скачать торрент  

по сравнению с 1 частью, то 2 - ГОВНО полное! извините конечно, но это так!pb.wtf



30-05-2012 18:13 Призрачный гонщик 2 Скачать торрент  

Согласен,по сравнению с первой частью полное г...pb.wtf



30-05-2012 19:31 Призрачный гонщик 2 Скачать торрент  

chermet19 писал(а):

по сравнению с 1 частью, то 2 - <ЦЕНЗУРА> полное! извините конечно, но это так!

Да ну на#, в первой части конечно сюжет присутствует, но зато во второй части какие спецэффекты! чего стоит горящий грузовичек :)
фильм то из категории "фэнтези, боевик" :) И первая часть то особой глубиной мысли не отличалась, а во второй части налегли на спецэффекты. ИМХО, удалось вполне на твердую пятерочку, особенно если забить на сюжет ;) Сказка она и есть сказка.
И вообще, фильм стоит посмотреть хотя бы ради того, как Николас Кейдж "мучается от своего проклятия". У него всегда красиво получалось делать лицо страдания.pb.wtf



    Дорогой пользователь! Огромная просьба, поблагодарите релизера, оцените раздачу и оставьте свои комментарий, если Вы скачали Призрачный гонщик 2 через торрент бесплатно! Внесите свою лепту в развитие PiratBit!
    Комментировать посты могут только пользователи прошедшие не сложную регистрацию
    Показать сообщения:    

    Призрачный гонщик 2 через торрент
    Скачать бесплатно Призрачный гонщик 2
    Призрачный гонщик 2 скачать торрент
    Призрачный гонщик 2 смотреть онлайн
    Cкачать фильм Призрачный гонщик 2 бесплатно
    Призрачный гонщик 2 скачать торрент в хорошем качестве
    Призрачный гонщик 2 смотреть онлайн бесплатно в хорошем качестве


    Вы не можете начинать темы
    Вы не можете отвечать на сообщения
    Вы не можете редактировать свои сообщения
    Вы не можете удалять свои сообщения
    Вы не можете голосовать в опросах
    Вы не можете прикреплять файлы к сообщениям
    Вы можете скачивать файлы