1 сезон

1 сезон

iTunes

1

КиноПоиск HD

Кинопоиск HD

iTunes

13

1 сезон

RePack

30

Ultimate

ВАЖНО

ИГРА 18+

pack

RePack

MK11
pack

Легкие деньги

RePack

jed

RePack

fifa19

RePack

RDR2

RePack

NEED FOR SPEED™ PAYBACK

4 сезон

9 сезон

Бесстыжие 9 сезон

Все сериалы

все сериалы на PB.wtf

RePack

FAR CRY 5
  
Magnet ссылка

Вагина-убийца / Kiseichuu: kiraa pusshii (Такао Накано) [2004 г., ужасы, комедия, DVDRip, VO] pb.wtf

Вагина-убийца через торрент pb.wtf

Размер: 690 MB | Добавлен: 8 лет 10 мес. назад | Торрент скачан:8 раз
Скачать  

28-05-2012 19:59 Вагина-убийца Скачать торрент  

Вагина-убийца / Kiseichuu: kiraa pusshii

Год выпуска: 2004
Страна: Япония
Жанр: ужасы, комедия
Продолжительность: 00:59:45
Перевод: Любительский (одноголосый) den904
Режиссер: Такао Накано
Продюссер: Хидеаки Нишияма, Akihiko Kaizu, Kenji Mochiduki
Сценарий: Такао Накано
Премьера в мире: 22 августа 2004

В ролях: Сакурако Каору, Natsumi Mitsu, Масанори Миямото, Томохиро Окада, Tôgo Okumoto Toshimichi Tasaki, Каньджи Цучия, Sachika Uchiyama, Юми Йошиюки.
Описание: Группа подростков приезжает в заброшенный дом, чтобы устроить вечеринку — выпить и заняться любовью. В одну из девушек вселяется некий паразит, после чего у неё из вагины вырастают клыки и она начинает ими всех убивать.
Качество: DVDRip
Формат: AVI
Видео кодек: XviD
Аудио кодек: MP3
Видео: 1280 Кбит/сек Aspect : 720 x 360 (2.000) at 29.970 fps
Аудио: 320 Кбит/сек Infos : 2 канала, 48,0 КГц

Общее
Полное имя : D:\Фильмы\КОМЕДИИ\Vagina-ubijca [2004].avi
Формат : AVI
Формат/Информация : Audio Video Interleave
Размер файла : 690 Мбайт
Продолжительность : 59 м.
Общий поток : 1614 Кбит/сек
Программа кодирования : GOM ENCODER (GAviWriter 1.0)

Видео
Идентификатор : 0
Формат : MPEG-4 Visual
Профиль формата : Simple@L1
Параметр BVOP формата : Нет
Параметр QPel формата : Нет
Параметр GMC формата : Без точки перехода
Параметр матрицы формата : Default (H.263)
Идентификатор кодека : XVID
Идентификатор кодека/Подсказка : XviD
Продолжительность : 59 м.
Битрейт : 1280 Кбит/сек
Ширина : 720 пикс.
Высота : 360 пикс.
Соотношение сторон : 2,000
Частота кадров : 29,970 кадр/сек
Цветовое пространство : YUV
Подвыборка цветности : 4:2:0
Битовая глубина : 8 бит
Тип развёртки : Прогрессивная
Метод сжатия : С потерями
Бит/(Пиксели*Кадры) : 0.165
Размер потока : 547 Мбайт (79%)
Библиотека кодирования : Lavc52.110.0

Аудио
Идентификатор : 1
Формат : MPEG Audio
Версия формата : Version 1
Профиль формата : Layer 3
Режим : Joint stereo
Идентификатор кодека : 55
Идентификатор кодека/Подсказка : MP3
Продолжительность : 59 м.
Вид битрейта : Постоянный
Битрейт : 320 Кбит/сек
Каналы : 2 канала
Частота : 48,0 КГц
Метод сжатия : С потерями
Размер потока : 137 Мбайт (20%)
Выравнивание : Соединение по промежуткам
Продолжительность промежутка : 24 мс. (0,72 видеокадр)
Время предзагрузки промежутка : 72 ms
Библиотека кодирования : LAME3.98.4

pb.wtf



Скачать Вагина-убийца через торрент http://i37.fastpic.ru/big/2012/0528/17/4bbba4c4ba3f1bf0cefd9143cc2a0e17.png Скачать фильм Вагина-убийца через торрент бесплантно в хорошем качестве Описание: Группа подростков приезжает в заброшенный дом, чтобы устроить вечеринку — выпить и заняться любовью. В одну из девушек вселяется ... 10 10 1
Info! Золотая раздача, скачанное не засчитывается.
Торрент: Зарегистрирован [2012-05-28 19:59] · скачан: 8 раз
Статус: √ проверено
Размер: 690 MB
Как cкачать? Как скачать Вагина-убийца через торрент | UTorrent

% Раздел Тема Автор DL S | L
Азиатские фильмы [ 843 MB ] Вагина-убийца: Сексуальный поразит / Kiseichuu: kiraa pusshii [2004 DVDRip] L_E_X Скачать
1 | 0

28-11-2019 20:33  

Отключить всю рекламу на сайте

28-05-2012 20:16 Вагина-убийца Скачать торрент  

вот это название)))))первый раз название этого фильма вижу..Вот че ток не придумают. Нехватало чтоб еще сняли типо этого. НАпример Ж.о.п.а-мутант))))pb.wtf



28-05-2012 20:42 Вагина-убийца Скачать торрент  

28-05-2012 21:24 Вагина-убийца Скачать торрент  

и это страна с высокой культурой .... тьфу...pb.wtf



29-05-2012 04:56 Вагина-убийца Скачать торрент  

Даже качать как-то стремно ))pb.wtf



16-07-2012 10:59 Вагина-убийца Скачать торрент  

:sensored: pb.wtf



11-12-2012 17:54 Вагина-убийца Скачать торрент  

Вот это да..... :jest3:pb.wtf



    Дорогой пользователь! Огромная просьба, поблагодарите релизера, оцените раздачу и оставьте свои комментарий, если Вы скачали Вагина-убийца через торрент бесплатно! Внесите свою лепту в развитие PiratBit!
    Комментировать посты могут только пользователи прошедшие не сложную регистрацию
    Показать сообщения:    

    Вагина-убийца через торрент
    Скачать бесплатно Вагина-убийца
    Вагина-убийца скачать торрент
    Вагина-убийца смотреть онлайн
    Cкачать фильм Вагина-убийца бесплатно
    Вагина-убийца скачать торрент в хорошем качестве
    Вагина-убийца смотреть онлайн бесплатно в хорошем качестве


    Вы не можете начинать темы
    Вы не можете отвечать на сообщения
    Вы не можете редактировать свои сообщения
    Вы не можете удалять свои сообщения
    Вы не можете голосовать в опросах
    Вы не можете прикреплять файлы к сообщениям
    Вы можете скачивать файлы