2 сезон

iTunes

MVO

1

2 сезон

iTunes

iTunes

1 сезон

RePack

30

Новинка

ВАЖНО

ИГРА 18+

pack

RePack

MK11
pack

Легкие деньги

RePack

jed

RePack

fifa19

RePack

RDR2

RePack

NEED FOR SPEED™ PAYBACK

4 сезон

9 сезон

Бесстыжие 9 сезон

Все сериалы

все сериалы на PB.wtf

RePack

FAR CRY 5

Anonymous, добрый день, мы не успеваем собрать деньги на оплату серверов за декабрь и январь, помогите нам пожалуйста в это трудное время. В качестве благодарности мы отключим Вам всю рекламу на сайте (укажите свой ник в строку Ваше имя)!

×
  
Magnet ссылка

[ShemaleStrokers/RodneyMoore] TS Babydoll (Has A Large Throbbing Surprise For You!) [28.05.2012 г., Shemale, Solo, Masturbation, SiteRip] pb.wtf

[ShemaleStrokers через торрент pb.wtf

Размер: 194 MB | Добавлен: 8 лет 7 мес. назад | Торрент скачан:54 раза
Скачать  

28-05-2012 22:48 [ShemaleStrokers Скачать торрент  

[ShemaleStrokers.com/RodneyMoore.com]
TS Babydoll
Has A Large Throbbing Surprise For You!
[28.05.2012 г.]

Год производства: 2012 г.
Жанр: Shemale, Solo, Masturbation
Продолжительность: 00:15:38
Студия: ShemaleStrokers.com/RodneyMoore.com
В ролях: TS Babydoll

Качество видео: SiteRip
Формат видео: WMV
Видео кодек: Windows Media
Аудио кодек: WMA
Видео: 29.970 fps, 1 600 Kbps, 640x480
Аудио: 128 kbps, 44 kHz, stereo CBR
Описание:
Hi, I'm Babydoll, notorious among transsexuals for having a huge cock.
Wouldn't you love to play with my thick veiny girly pole?
My titties keep growing, and they're very cute, but I'm sure it's
my massive uncut member that will keep you occupied for many joyous hours.
Hmm, my cum is tasty too.
General
Complete name : ts-babydoll1-scene.wmv
Format : Windows Media
File size : 194 MiB
Duration : 15mn 38s
Overall bit rate : 1 733 Kbps
Maximum Overall bit rate : 1 696 Kbps
Encoded date : UTC 2012-05-27 06:17:36.000

Video
ID : 1
Format : VC-1
Format profile : Main
Codec ID : WMV3
Codec ID/Info : Windows Media Video 9
Codec ID/Hint : WMV3
Description of the codec : Windows Media Video 9 - 2-pass VBR
Duration : 15mn 38s
Bit rate : 1 600 Kbps
Width : 640 pixels
Height : 480 pixels
Display aspect ratio : 4:3
Frame rate : 29.970 fps
Bit depth : 8 bits
Scan type : Progressive
Compression mode : Lossy
Bits/(Pixel*Frame) : 0.174
Stream size : 179 MiB (92%)

Audio
ID : 2
Format : WMA
Format version : Version 2
Codec ID : 161
Codec ID/Info : Windows Media Audio
Description of the codec : Windows Media Audio 9 - 128 kbps, 44 kHz, stereo CBR
Duration : 15mn 38s
Bit rate : 128 Kbps
Channel(s) : 2 channels
Sampling rate : 44.1 KHz
Bit depth : 16 bits
Stream size : 14.3 MiB (7%)
pb.wtf



pack Скачать [ShemaleStrokers через торрент http://i36.fastpic.ru/big/2012/0517/3c/e07d4468f5749fdceeaab97e9d730d3c.jpg Скачать фильм [ShemaleStrokersчерез торрент бесплантно в хорошем качестве Описание:Hi, I'm Babydoll, notorious among transsexuals for having a huge cock.Wouldn't you love to play with my thick veiny girly pole?My ... 5 10 1
Info! Золотая раздача, скачанное не засчитывается.
Торрент: Зарегистрирован [2012-05-28 22:48] · скачан: 54 раз
Статус: √ проверено
Размер: 194 MB
Как cкачать? Как скачать [ShemaleStrokers через торрент | UTorrent

28-11-2019 20:33  

Отключить всю рекламу на сайте

    Дорогой пользователь! Огромная просьба, поблагодарите релизера, оцените раздачу и оставьте свои комментарий, если Вы скачали [ShemaleStrokers через торрент бесплатно! Внесите свою лепту в развитие PiratBit!
    Комментировать посты могут только пользователи прошедшие не сложную регистрацию
    Показать сообщения:    

    [ShemaleStrokers через торрент
    Скачать бесплатно [ShemaleStrokers
    [ShemaleStrokers скачать торрент
    [ShemaleStrokers смотреть онлайн
    Cкачать фильм [ShemaleStrokers бесплатно
    [ShemaleStrokers скачать торрент в хорошем качестве
    [ShemaleStrokers смотреть онлайн бесплатно в хорошем качестве


    Вы не можете начинать темы
    Вы не можете отвечать на сообщения
    Вы не можете редактировать свои сообщения
    Вы не можете удалять свои сообщения
    Вы не можете голосовать в опросах
    Вы не можете прикреплять файлы к сообщениям
    Вы можете скачивать файлы