Ссылка на приватное зеркало нашего сайта всего за 1$. Внимание количество ограничено!!!

2 сезон

iTunes

1 сезон

1

2 сезон

2 сезон

iTunes

1 сезон

RePack

30

Ultimate

ВАЖНО

ИГРА 18+

pack

RePack

MK11
pack

Забери бонус

RePack

jed

!!Акция!!

Alien_Rage

RePack

fifa19

RePack

Assassins Creed: Odyssey

RePack

NEED FOR SPEED™ PAYBACK

4 сезон

9 сезон

Бесстыжие 9 сезон

Все сериалы

все сериалы на PB.wtf

RePack

FAR CRY 5
  

Белоснежка: Месть гномов / Mirror Mirror (Тарсем Синх) [2012 г., фэнтези, драма, комедия, приключения, HDRip, DUB (лицензия)] pb.wtf

Белоснежка: Месть гномов через торрент pb.wtf

Размер: 1.46 GB | Добавлен: 8 лет 6 мес. назад | Торрент скачан:1379 раз
Скачать  

29-05-2012 11:01 Белоснежка: Месть гномов Скачать торрент  


[img]http:// СПАМ

Белоснежка: Месть гномов / Mirror Mirror
«Новые страницы любимой сказки»
Год выпуска: 2012
Страна: США
Жанр: фэнтези, драма, комедия, приключения
Продолжительность: 01:48:19
Перевод: Дубляж (Лицензия)
Тип релиза: Лицензия

Режиссер: Тарсем Синх

В ролях: Джулия Робертс, Лили Коллинз, Шон Бин, Арми Хаммер, Натан Лейн, Джордан Прентис, Марк Повинелли, Джо Гнофо, Дэнни Вудберн, Себастьян Сарасено, Мартин Клеббэ

Описание: Злая Королева, мечтающая выйти замуж за красивого и богатого Принца, хитростью выдворяет из дворца Белоснежку и берет Влacть в свои руки. Но милая девушка не погибла в темном дремучем лесу, а связалась с бандой гномов-разбойников. Вместе они отомстят Злодейке!

Качество: HDRip
Формат: AVI
Видео кодек: XviD
Аудио кодек: AC3
Видео: 720x400 (1.80:1), 24 fps, XviD build 50 ~1471 kbps avg, 0.21 bit/pixel
Аудио#1: 48 kHz, AC3 Dolby Digital, 3/2 (L,C,R,l,r) LFE ch, ~448 kbps
Идентификатор кодека : XVID
Идентификатор кодека/Подсказка : XviD
Продолжительность : 1 ч. 48 м.
Битрейт : 1472 Кбит/сек
Ширина : 720 пикселей
Высота : 400 пикселей
Соотношение сторон : 16:9
Частота кадров : 24,000 кадра/сек
Цветовое пространство : YUV
Субдискретизация насыщенности : 4:2:0
Битовая глубина : 8 бит
Тип развёртки : Прогрессивная
Метод сжатия : С потерями
Бит/(Пиксели*Кадры) : 0.213
Размер потока : 1,11 Гбайт (76%)
Библиотека кодирования : XviD 1.2.1 (UTC 2008-12-04)

Аудио
Идентификатор : 1
Формат : AC-3
Формат/Информация : Audio Coding 3
Расширение режима : CM (complete main)
Параметр Endianness формата : Big
Идентификатор кодека : 2000
Продолжительность : 1 ч. 48 м.
Вид битрейта : Постоянный
Битрейт : 448 Кбит/сек
Каналы : 6 каналов
Расположение каналов : Front: L C R, Side: L R, LFE
Частота : 48,0 КГц
Битовая глубина : 16 бит
Метод сжатия : С потерями
Размер потока : 347 Мбайт (23%)
Выравнивание : Разделение по промежуткам
Продолжительность промежутка : 42 мс. (1,00 видеокадр)
Время предзагрузки промежутка : 500 мс.
pb.wtf



Скачать Белоснежка: Месть гномов через торрент http://i36.fastpic.ru/big/2012/0529/08/2a7e27b28c19070d26f546f093369508.png Скачать фильм Белоснежка: Месть гномов через торрент бесплантно в хорошем качестве Описание: Злая Королева, мечтающая выйти замуж за красивого и богатого Принца, хитростью выдворяет из дворца Белоснежку и берет Влacть в ... 9.4 10 5
Info! Золотая раздача, скачанное не засчитывается.
Торрент: Зарегистрирован [2012-05-29 11:01] · скачан: 1 379 раз
Статус: √ проверено
Размер: 1.46 GB
Как cкачать? Как скачать Белоснежка: Месть гномов через торрент | qTorrent

% Раздел Тема Автор DL S | L
Фильмы [HD 720p, 1080p] (Хороший звук DUB, MVO) [ 8.88 GB ] Белоснежка: Месть гномов / Mirror Mirror [2012 BDRip DUB ] ~Relizer~ Скачать
1 | 0
Фильмы 2012 [ 1.46 GB ] Белоснежка: Месть гномов / Mirror Mirror [2012 DVDRip лицензия] Twi7ter Скачать
1 | 0
Фильмы (Blu-ray, BD-Remux, HDDVD) [ 31.24 GB ] Белоснежка: Месть гномов / Mirror Mirror [2012 Blu-Ray DUB ] shuller Скачать
1 | 0
Фильмы 2012 [ 743 MB ] Белоснежка: Месть гномов / Mirror Mirror [2012 DVDRip] DUB |лицензия| Mr. Freeman Скачать
1 | 0
Фильмы (DVD фильмы) [ 7.08 GB ] Белоснежка: Месть гномов / Mirror Mirror [2012 DVD9] R5 voovaz Скачать
1 | 0
Фильмы 2012 [ 2.05 GB ] Белоснежка: Месть гномов / Mirror Mirror [2012 DVDRip-AVC] DUB sashka203 Скачать
1 | 0

28-11-2019 20:33  

Отключить всю рекламу на сайте

29-05-2012 12:12 Белоснежка: Месть гномов Скачать торрент  

Что с трекером? У меня уже 2 дня не отображаются новые раздачи на главной странице, старые есть и все.
Ты не исключение - у всех та же проблема: завис cronpb.wtf



    Дорогой пользователь! Огромная просьба, поблагодарите релизера, оцените раздачу и оставьте свои комментарий, если Вы скачали Белоснежка: Месть гномов через торрент бесплатно! Внесите свою лепту в развитие PiratBit!
    Комментировать посты могут только пользователи прошедшие не сложную регистрацию
    Показать сообщения:    

    Белоснежка: Месть гномов через торрент
    Скачать бесплатно Белоснежка: Месть гномов
    Белоснежка: Месть гномов скачать торрент
    Белоснежка: Месть гномов смотреть онлайн
    Cкачать фильм Белоснежка: Месть гномов бесплатно
    Белоснежка: Месть гномов скачать торрент в хорошем качестве
    Белоснежка: Месть гномов смотреть онлайн бесплатно в хорошем качестве


    Вы не можете начинать темы
    Вы не можете отвечать на сообщения
    Вы не можете редактировать свои сообщения
    Вы не можете удалять свои сообщения
    Вы не можете голосовать в опросах
    Вы не можете прикреплять файлы к сообщениям
    Вы можете скачивать файлы