Ссылка на приватное зеркало всего за 1$. Внимание количество ограничено!!!

iTunes

iTunes

iTunes

1

iTunes

iTunes

iTunes

iTunes

iTunes

30
pack

$ от Little Big

ВАЖНО

!!Акция!!

Alien_RageХит недели

RePack

Resident Evil 21

ИГРА 18+

pack

RePack

jed

!!Акция!!

Alien_Rage

RePack

fifa19

RePack

Assassins Creed: Odyssey

RePack

NEED FOR SPEED™ PAYBACK

4 сезон

9 сезон

Бесстыжие 9 сезон

Все сериалы

все сериалы на PB.wtf

RePack

FAR CRY 5
  

Ва-Банк / Vabank (Юлиуш Махульский) [1981 г., Комедия, криминал, HDTVRip (720p), MVO, профессиональный одноголосый, оригинал-Польский] pb.wtf

Ва-Банк через торрент pb.wtf

Размер: 4.42 GB | Добавлен: 8 лет 1 мес. назад | Торрент скачан:17 раз
Скачать  

29-05-2012 22:03 Ва-Банк Скачать торрент  

Ва-Банк / Vabank Год выпуска: 1981
Страна: Польша, Zespol Filmowy "Kadr"
Жанр: Комедия, криминал
Продолжительность: 01:44:46
Перевод: Профессиональный многоголосый, профессиональный одноголосый, оригинал Польский
Субтитры: Русские, английские, венгерские
Режиссер: Юлиуш Махульский
В ролях:
Ян Махульский, Леонард Петрашак, Витольд Пыркош, Эва Шикульска, Кшиштоф Кершновский, Здислав Кузняк, Юзеф Пара, Эльжбета Зайонцувна, Яцек Хмельник, Збигнев Гейгер, Януш Михаловский, Рышард Котыс, Хенрик Биста, Леон Немчик, Эва Фронцкевич, Cтанислав Ярошиньский, Мечислав Яновский, Здзислав Вардейн, Влодзимеж Мусял, Чеслав Пшибыла, Гжегож Хероминьский

Описание:
Варшава, октябрь 1934 года. 49-летний медвежатник по имени Хенрик Квинто выходит из тюрьмы после шестилетней отсидки. Вернувшись домой, он застаёт у жены постороннего мужчину (который оказывается комиссаром Карелицким), забирает заранее припрятанные в ножке стула деньги и, не говоря ни единого слова, уходит. Квинто останавливается в гостинице. К нему является старый друг, ныне преуспевающий банкир Густав Крамер. Из их разговора выясняется, что именно Крамер шесть лет назад и продал Квинто полиции, склонив его на неудавшееся ограбление. Сделал он это потому, что в противном случае полиция могла заняться им самим — Крамер был и остался мошенником. Теперь Густав в качестве моральной компенсации принёс Квинто 45 тысяч злотых. Уходя, он из желания поиздеваться оставляет Хенрику адрес своего банка. Квинто решает отомстить своему бывшему сообщнику, ограбив его банк, но так, чтобы подозрение пало на самого владельца – Крамера. И, конечно, берет. Изящно, весело и закручено!

Качество: HDTVRip (720p)
Формат: MКV
Видео кодек: x264
Аудио кодек: AС3
Видео: H.264, 1280х720 (16:9), 25,000 fps, 4950 kbps, 0.215bit/pixel
Аудио 1 :48 kHz, AC-3, 2 ch, 192 kbps Советский синхрон - И.Добряков
Аудио 2 :48 kHz, AC-3, 6 ch, 448 kbps Русский
Аудио 3 :48 kHz, AC-3, 6 ch, 448 kbps Polish
Общее
Уникальный идентификатор : 236308956563469403697810867985012338737 (0xB1C773162F116E5598F6DC9C4089B031)
Полное имя : F:\ФИЛЬМЫ ТОРРЕНТА\Va-Bank.1981.x264.HDTVRip.(720p).HDClub.mkv
Формат : Matroska
Версия формата : Version 2
Размер файла : 4,42 Гбайт
Продолжительность : 1 ч. 44 м.
Общий поток : 6035 Кбит/сек
Название фильма : Vabank (1981) - Release for HDCLUB by vlaluk
Дата кодирования : UTC 2012-04-25 14:49:41
Программа кодирования : mkvmerge v4.8.0 ('I Got The...') сборка от May 24 2011 03:12:58
Библиотека кодирования : libebml v1.2.0 + libmatroska v1.1.0

Видео
Идентификатор : 1
Формат : AVC
Формат/Информация : Advanced Video Codec
Профиль формата : High@L4.1
Параметр CABAC формата : Да
Параметр ReFrames формата : 9 кадров
Идентификатор кодека : V_MPEG4/ISO/AVC
Продолжительность : 1 ч. 44 м.
Битрейт : 4950 Кбит/сек
Ширина : 1280 пикселей
Высота : 720 пикселей
Соотношение сторон : 16:9
Частота кадров : 25,000 кадров/сек
Цветовое пространство : YUV
Субдискретизация насыщенности : 4:2:0
Битовая глубина : 8 бит
Тип развёртки : Прогрессивная
Бит/(Пиксели*Кадры) : 0.215
Размер потока : 3,53 Гбайт (80%)
Заголовок : Vabank (1981) - Release for HDCLUB by vlaluk
Библиотека кодирования : x264 core 122 r2184 5c85e0a
Настройки программы : cabac=1 / ref=9 / deblock=1:-3:-1 / analyse=0x3:0x113 / me=umh / subme=10 / psy=1 / psy_rd=1.00:0.00 / mixed_ref=1 / me_range=32 / chroma_me=1 / trellis=2 / 8x8dct=1 / cqm=0 / deadzone=21,11 / fast_pskip=0 / chroma_qp_offset=-2 / threads=6 / sliced_threads=0 / nr=0 / decimate=0 / interlaced=0 / bluray_compat=0 / constrained_intra=0 / bframes=6 / b_pyramid=2 / b_adapt=2 / b_bias=0 / direct=3 / weightb=1 / open_gop=0 / weightp=2 / keyint=250 / keyint_min=25 / scenecut=40 / intra_refresh=0 / rc=2pass / mbtree=0 / bitrate=4950 / ratetol=1.0 / qcomp=0.70 / qpmin=0 / qpmax=69 / qpstep=4 / cplxblur=20.0 / qblur=0.5 / ip_ratio=1.40 / pb_ratio=1.30 / aq=1:0.90
Язык : English

Аудио #1
Идентификатор : 2
Формат : AC-3
Формат/Информация : Audio Coding 3
Расширение режима : CM (complete main)
Идентификатор кодека : A_AC3
Продолжительность : 1 ч. 44 м.
Вид битрейта : Постоянный
Битрейт : 192 Кбит/сек
Каналы : 2 канала
Расположение каналов : Front: L R
Частота : 48,0 КГц
Битовая глубина : 16 бит
Метод сжатия : С потерями
Размер потока : 144 Мбайт (3%)
Заголовок : DD 2.0 @ 192 kbps @ Советский синхрон - И.Добряков
Язык : Russian

Аудио #2
Идентификатор : 3
Формат : AC-3
Формат/Информация : Audio Coding 3
Расширение режима : CM (complete main)
Идентификатор кодека : A_AC3
Продолжительность : 1 ч. 44 м.
Вид битрейта : Постоянный
Битрейт : 448 Кбит/сек
Каналы : 6 каналов
Расположение каналов : Front: L C R, Side: L R, LFE
Частота : 48,0 КГц
Битовая глубина : 16 бит
Метод сжатия : С потерями
Размер потока : 336 Мбайт (7%)
Заголовок : DD 5.1 @ 448 kbps @ MVO
Язык : Russian

Аудио #3
Идентификатор : 4
Формат : AC-3
Формат/Информация : Audio Coding 3
Расширение режима : CM (complete main)
Идентификатор кодека : A_AC3
Продолжительность : 1 ч. 44 м.
Вид битрейта : Постоянный
Битрейт : 448 Кбит/сек
Каналы : 6 каналов
Расположение каналов : Front: L C R, Side: L R, LFE
Частота : 48,0 КГц
Битовая глубина : 16 бит
Метод сжатия : С потерями
Размер потока : 336 Мбайт (7%)
Заголовок : DD 5.1 @ 448 kbps
Язык : Polish

Текст #1
Идентификатор : 5
Формат : UTF-8
Идентификатор кодека : S_TEXT/UTF8
Идентификатор кодека/Информация : UTF-8 Plain Text
Заголовок : Forced
Язык : Russian

Текст #2
Идентификатор : 6
Формат : UTF-8
Идентификатор кодека : S_TEXT/UTF8
Идентификатор кодека/Информация : UTF-8 Plain Text
Язык : Russian

Текст #3
Идентификатор : 7
Формат : UTF-8
Идентификатор кодека : S_TEXT/UTF8
Идентификатор кодека/Информация : UTF-8 Plain Text
Язык : English

Текст #4
Идентификатор : 8
Формат : UTF-8
Идентификатор кодека : S_TEXT/UTF8
Идентификатор кодека/Информация : UTF-8 Plain Text
Язык : Hungarian

Меню
00:00:00.000 : en:Chapter 1
00:07:49.440 : en:Chapter 2
00:13:39.240 : en:Chapter 3
00:22:08.760 : en:Chapter 4
00:27:14.280 : en:Chapter 5
00:32:13.200 : en:Chapter 6
00:38:13.560 : en:Chapter 7
00:47:21.600 : en:Chapter 8
01:07:17.400 : en:Chapter 9
01:09:53.040 : en:Chapter 10
01:25:03.960 : en:Chapter 11
01:40:03.840 : en:Chapter 12
pb.wtf



Скачать Ва-Банк через торрент http://pic.kartinco.top/images/2000/cadqtkvnsd.png Скачать фильм Ва-Банк через торрент бесплантно в хорошем качестве Описание:Варшава, октябрь 1934 года. 49-летний медвежатник по имени Хенрик Квинто выходит из тюрьмы после шестилетней отсидки. Вернувшись ... 10 10 3
Info! Золотая раздача, скачанное не засчитывается.
Торрент: Зарегистрирован [2012-05-29 22:03] · скачан: 17 раз
Статус: √ проверено
Размер: 4.42 GB
Как cкачать? Как скачать Ва-Банк через торрент | qTorrent

28-11-2019 20:33  

Отключить всю рекламу на сайте

19-09-2012 03:39 Ва-Банк Скачать торрент  

Други - Пираты , может кто-нибудь встанет на раздачу , заранее благодарен . Сherry , огромное спасибо за релиз , давно искал в таком качестве.pb.wtf



25-09-2012 17:39 Ва-Банк Скачать торрент  

Может кто-нибудь даст докачать , 6 день качаю 4 гига .pb.wtf



03-10-2012 18:25 Ва-Банк Скачать торрент  

Кто-то из скачавших может встанет на раздачу , третью неделю качаю , пожалуйста .pb.wtf



10-10-2012 18:36 Ва-Банк Скачать торрент  

Раздал больше 5 гигов , а 700 Мб скачать не могу . Дайте фильм докачать .pb.wtf



16-10-2012 17:40 Ва-Банк Скачать торрент  

Cпасибо , скачал на другом сайте.pb.wtf



03-01-2013 09:25 Ва-Банк Скачать торрент  

такая же ситуация, качаю уже черт знает сколько, осталось 768 Мб - если сюда кто-нить заглядывает - постойте хотя бы денёк на раздачеpb.wtf



06-01-2013 22:46 Ва-Банк Скачать торрент  

короче, раздача мертвая, пришлось качать на другом ресурсеpb.wtf



    Дорогой пользователь! Огромная просьба, поблагодарите релизера, оцените раздачу и оставьте свои комментарий, если Вы скачали Ва-Банк через торрент бесплатно! Внесите свою лепту в развитие PiratBit!
    Комментировать посты могут только пользователи прошедшие не сложную регистрацию
    Показать сообщения:    

    Ва-Банк через торрент
    Скачать бесплатно Ва-Банк
    Ва-Банк скачать торрент
    Ва-Банк смотреть онлайн
    Cкачать фильм Ва-Банк бесплатно
    Ва-Банк скачать торрент в хорошем качестве
    Ва-Банк смотреть онлайн бесплатно в хорошем качестве


    Вы не можете начинать темы
    Вы не можете отвечать на сообщения
    Вы не можете редактировать свои сообщения
    Вы не можете удалять свои сообщения
    Вы не можете голосовать в опросах
    Вы не можете прикреплять файлы к сообщениям
    Вы можете скачивать файлы