2 сезон

iTunes

MVO

1

2 сезон

iTunes

iTunes

1 сезон

RePack

30

Новинка

ВАЖНО

ИГРА 18+

pack

RePack

MK11
pack

Легкие деньги

RePack

jed

RePack

fifa19

RePack

RDR2

RePack

NEED FOR SPEED™ PAYBACK

4 сезон

9 сезон

Бесстыжие 9 сезон

Все сериалы

все сериалы на PB.wtf

RePack

FAR CRY 5

Anonymous, доброй ночи, мы не успеваем собрать деньги на оплату серверов за декабрь и январь, помогите нам пожалуйста в это трудное время. В качестве благодарности мы отключим Вам всю рекламу на сайте (укажите свой ник в строку Ваше имя)!

×
  
Magnet ссылка

[ShemaleStrokers] TS Teresa (Is A Hairy Girl Who Loves To Stroke!) [07.05.2012 г., Shemale, Solo, Masturbation, SiteRip] pb.wtf

через торрент pb.wtf

Размер: 209 MB | Добавлен: 8 лет 7 мес. назад | Торрент скачан:34 раза
Скачать  

30-05-2012 09:47 Скачать торрент  


[ShemaleStrokers.com]
TS Teresa
Is A Hairy Girl Who Loves To Stroke!
[07.05.2012 г.]

Год производства: 2012 г.
Жанр: Shemale, Solo, Masturbation
Продолжительность: 00:17:23

Студия: ShemaleStrokers.com
В ролях: TS Teresa

Качество видео: SiteRip
Формат видео: WMV
Видео кодек: Windows Media
Аудио кодек: WMA
Видео: 29.970 fps, 1 500 Kbps, 960x540
Аудио: 128 kbps, 44 kHz, stereo CBR

Описание:
Hi, I'm Teresa, a New York girl who is quiet but nasty.
I've got a nice uncut cock and if you like hairy girls,
I've got a lot of pubic hair. Watch me stroke myself off.

General
Complete name : shemale-teresa-scene.wmv
Format : Windows Media
File size : 209 MiB
Duration : 17mn 23s
Overall bit rate : 1 682 Kbps
Maximum Overall bit rate : 1 646 Kbps
Encoded date : UTC 2012-05-04 22:11:56.000

Video
ID : 1
Format : VC-1
Format profile : Main
Codec ID : WMV3
Codec ID/Info : Windows Media Video 9
Codec ID/Hint : WMV3
Description of the codec : Windows Media Video 9 - 2-pass VBR
Duration : 17mn 23s
Bit rate : 1 500 Kbps
Width : 960 pixels
Height : 540 pixels
Display aspect ratio : 16:9
Frame rate : 29.970 fps
Bit depth : 8 bits
Scan type : Progressive
Compression mode : Lossy
Bits/(Pixel*Frame) : 0.097
Stream size : 187 MiB (89%)

Audio
ID : 2
Format : WMA
Format version : Version 2
Codec ID : 161
Codec ID/Info : Windows Media Audio
Description of the codec : Windows Media Audio 9 - 128 kbps, 44 kHz, stereo CBR
Duration : 17mn 23s
Bit rate : 128 Kbps
Channel(s) : 2 channels
Sampling rate : 44.1 KHz
Bit depth : 16 bits
Stream size : 15.9 MiB (8%)
pb.wtf



pack Скачать через торрент http://i37.fastpic.ru/big/2012/0530/6d/7fa852ce3bd052679b9f61eac26cb36d.jpg Скачать фильм [ShemaleStrokers] TS Teresa через торрент бесплантно в хорошем качестве Описание:Hi, I'm Teresa, a New York girl who is quiet but nasty.I've got a nice uncut cock and if you like hairy girls,I've got a lot of ... 1 10 1
Info! Золотая раздача, скачанное не засчитывается.
Торрент: Зарегистрирован [2012-05-30 09:47] · скачан: 34 раз
Статус: √ проверено
Размер: 209 MB
Как cкачать? Как скачать через торрент | UTorrent

28-11-2019 20:33  

Отключить всю рекламу на сайте

    Дорогой пользователь! Огромная просьба, поблагодарите релизера, оцените раздачу и оставьте свои комментарий, если Вы скачали через торрент бесплатно! Внесите свою лепту в развитие PiratBit!
    Комментировать посты могут только пользователи прошедшие не сложную регистрацию
    Показать сообщения:    

    через торрент
    Скачать бесплатно
    скачать торрент
    смотреть онлайн
    Cкачать фильм бесплатно
    скачать торрент в хорошем качестве
    смотреть онлайн бесплатно в хорошем качестве


    Вы не можете начинать темы
    Вы не можете отвечать на сообщения
    Вы не можете редактировать свои сообщения
    Вы не можете удалять свои сообщения
    Вы не можете голосовать в опросах
    Вы не можете прикреплять файлы к сообщениям
    Вы можете скачивать файлы