Ссылка на приватное зеркало нашего сайта всего за 1$. Внимание количество ограничено!!!

2 сезон

iTunes

1 сезон

1

iTunes

iTunes

iTunes

1 сезон

RePack

30

ИГРА 18+

pack

ВАЖНО

!!Акция!!

Alien_RageХит недели

RePack

MK11
pack

Забери бонус

RePack

jed

!!Акция!!

Alien_Rage

RePack

fifa19

RePack

Assassins Creed: Odyssey

RePack

NEED FOR SPEED™ PAYBACK

4 сезон

9 сезон

Бесстыжие 9 сезон

Все сериалы

все сериалы на PB.wtf

RePack

FAR CRY 5
  

Нерожденный / The Unborn (Дэвид С. Гойер) [2009 г., Ужасы, триллер, детектив, BDRip (720p), DUB + Оригинал] pb.wtf

Нерожденный через торрент pb.wtf

Размер: 4.84 GB | Добавлен: 8 лет 4 мес. назад | Торрент скачан:94 раза
Скачать  

30-05-2012 12:06 Нерожденный Скачать торрент  


Нерожденный / The Unborn

«Он хочет родиться...сейчас»
Год выпуска: 2009
Страна: США
Жанр: Ужасы, триллер, детектив
Продолжительность: 01:28:43
Перевод: Дубляж + Оригинал

Режиссер: Дэвид С. Гойер

В ролях: Одетт Юстман, Гари Олдман, Кэм Жиганде, Мэган Гуд, Идрис Эльба, Джейн Александр, Аттикус Шаффер, Джеймс Ремар, Карла Гуджино, К.С. Ли

Описание: Кейси Белл ненавидела свою мать за то, что та ее бросила. Но, когда начинает твориться необъяснимое, Кейси понимает, почему мама ушла. Измученная кошмарами и присутствием злого духа, она обращается к единственному человеку, который, возможно, способен ее спасти - опытному советчику по спиритуальным вопросам, а также известному экзорцисту по имени Сендак.

Качество: BDRip (720p)
Формат: MKV
Видео кодек: AVC
Аудио кодек: DTS
Видео: AVC, 1280x534 (2.35:1), 23.976 fps, 5 545 Kbps (0.338 bit/pixel)
Аудио#1: DTS, 48.0 KHz, 6 ch, 755 Kbps, CBR (Russian)(Дублированный)
Аудио#2: DTS, 48.0 KHz, 6 ch, 1 510 Kbps, CBR (English)
Субтитры: Английские, Словацкие
Релиз от:
Complete name : D:\Nerozhdennyj.2009.x264.BDRip.(720p).mkv
Format : Matroska
File size : 4.84 GiB
Duration : 1h 28mn
Overall bit rate : 7 812 Kbps
Encoded date : UTC 2009-07-13 08:09:21
Writing application : mkvmerge v2.8.0 ('The Tree') built on May 9 2009 18:02:06
Writing library : libebml v0.7.7 + libmatroska v0.8.1
Cover : Yes / Yes / Yes
Video #1
ID : 1
Format : AVC
Format/Info : Advanced Video Codec
Format profile : High@L4.1
Format settings, CABAC : Yes
Format settings, ReFrames : 6 frames
Muxing mode : Container profile=Unknown@4.1
Codec ID : V_MPEG4/ISO/AVC
Duration : 1h 28mn
Bit rate : 5 392 Kbps
Nominal bit rate : 5 545 Kbps
Width : 1 280 pixels
Height : 534 pixels
Display aspect ratio : 2.35:1
Frame rate : 23.976 fps
Resolution : 24 bits
Colorimetry : 4:2:0
Scan type : Progressive
Bits/(Pixel*Frame) : 0.329
Stream size : 3.34 GiB (69%)
Title : The Unborn 2009 Unrated
Writing library : x264 core 68 r1179M 96e2229
Encoding settings : cabac=1 / ref=6 / deblock=1:-3:-3 / analyse=0x3:0x133 / me=umh / subme=9 / psy_rd=1.0:0.0 / mixed_ref=1 / me_range=64 / chroma_me=1 / trellis=2 / 8x8dct=1 / cqm=0 / deadzone=21,11 / chroma_qp_offset=-2 / threads=6 / nr=0 / decimate=1 / mbaff=0 / bframes=4 / b_pyramid=1 / b_adapt=2 / b_bias=0 / direct=3 / wpredb=1 / keyint=250 / keyint_min=25 / scenecut=40 / rc=2pass / bitrate=5545 / ratetol=1.0 / qcomp=0.60 / qpmin=10 / qpmax=51 / qpstep=4 / cplxblur=20.0 / qblur=0.5 / ip_ratio=1.40 / pb_ratio=1.30 / aq=1:0.60
Language : English
Audio #2
ID : 2
Format : DTS
Format/Info : Digital Theater Systems
Codec ID : A_DTS
Duration : 1h 28mn
Bit rate mode : Constant
Bit rate : 755 Kbps
Channel(s) : 6 channels
Channel positions : Front: L C R, Surround: L R, LFE
Sampling rate : 48.0 KHz
Resolution : 24 bits
Stream size : 479 MiB (10%)
Title : DTS 768 kbps - дубляж
Language : Russian
Audio #3
ID : 3
Format : DTS
Format/Info : Digital Theater Systems
Codec ID : A_DTS
Duration : 1h 28mn
Bit rate mode : Constant
Bit rate : 1 510 Kbps
Channel(s) : 6 channels
Channel positions : Front: L C R, Surround: L R, LFE
Sampling rate : 48.0 KHz
Resolution : 24 bits
Stream size : 958 MiB (19%)
Title : DTS 5.1 @ 1.5 Mbps
Language : English
Text #4
ID : 4
Format : ASS
Codec ID : S_TEXT/ASS
Codec ID/Info : Advanced Sub Station Alpha
Language : English
Text #5
ID : 5
Format : ASS
Codec ID : S_TEXT/ASS
Codec ID/Info : Advanced Sub Station Alpha
Title : SDH
Language : English
Text #6
ID : 6
Format : ASS
Codec ID : S_TEXT/ASS
Codec ID/Info : Advanced Sub Station Alpha
Language : Slovenian

pb.wtf



Скачать Нерожденный через торрент http://lostpic.net/images/f1c9887e92160d4880509288631d4353.jpg Скачать фильм Нерожденный через торрент бесплантно в хорошем качестве Описание: Кейси Белл ненавидела свою мать за то, что та ее бросила. Но, когда начинает твориться необъяснимое, Кейси понимает, почему мама ... 10 10 2
Info! Золотая раздача, скачанное не засчитывается.
Торрент: Зарегистрирован [2012-05-30 12:06] · скачан: 94 раз
Статус: √ проверено
Размер: 4.84 GB
Как cкачать? Как скачать Нерожденный через торрент | qTorrent

28-11-2019 20:33  

Отключить всю рекламу на сайте

30-05-2012 17:45 Нерожденный Скачать торрент  

да тут же Мацука и Гарри из Декстера))pb.wtf



25-07-2012 12:37 Нерожденный Скачать торрент  

Что то у тёлочки на обложке с левой булочкой не тоpb.wtf



    Дорогой пользователь! Огромная просьба, поблагодарите релизера, оцените раздачу и оставьте свои комментарий, если Вы скачали Нерожденный через торрент бесплатно! Внесите свою лепту в развитие PiratBit!
    Комментировать посты могут только пользователи прошедшие не сложную регистрацию
    Показать сообщения:    

    Нерожденный через торрент
    Скачать бесплатно Нерожденный
    Нерожденный скачать торрент
    Нерожденный смотреть онлайн
    Cкачать фильм Нерожденный бесплатно
    Нерожденный скачать торрент в хорошем качестве
    Нерожденный смотреть онлайн бесплатно в хорошем качестве


    Вы не можете начинать темы
    Вы не можете отвечать на сообщения
    Вы не можете редактировать свои сообщения
    Вы не можете удалять свои сообщения
    Вы не можете голосовать в опросах
    Вы не можете прикреплять файлы к сообщениям
    Вы можете скачивать файлы