Ссылка на приватное зеркало нашего сайта всего за 1$. Внимание количество ограничено!!!

2 сезон

iTunes

iTunes

1

iTunes

iTunes

iTunes

WEBRip

iTunes

30
pack

Вам бонус

ВАЖНО

!!Акция!!

Alien_RageХит недели

RePack

Horizon Zero Dawn

ИГРА 18+

pack

RePack

jed

!!Акция!!

Alien_Rage

RePack

fifa19

RePack

Assassins Creed: Odyssey

RePack

NEED FOR SPEED™ PAYBACK

4 сезон

9 сезон

Бесстыжие 9 сезон

Все сериалы

все сериалы на PB.wtf

RePack

FAR CRY 5
  

[AndreaNobiliProductions] Dany (Photographer gets fucked) [25.05.2012г., Tranny, Pantyhose, Dildo Anal, All Sex, SiteRip] pb.wtf

через торрент pb.wtf

Размер: 676 MB | Добавлен: 8 лет 3 мес. назад | Торрент скачан:40 раз
Скачать  

30-05-2012 15:49 Скачать торрент  


[AndreaNobiliProductions.com]
Dany
Photographer gets fucked
[25.05.2012г.]

Год производства: 2012 г.
Жанр: Tranny, Pantyhose, Dildo anal, All Sex
Продолжительность: 00:36:28

Студия: AndreaNobiliProductions.com
В ролях: Dany

Качество видео: SiteRip
Формат видео: MP4
Видео кодек: AVC
Аудио кодек: AAC
Видео: 25.000 fps, 2 453 Kbps, 720x480
Аудио: 128 Kbps, 2 channels, 48.0 KHz

Описание:
After the photographer work, he gets fucked without hesitation.
General
Complete name : Photographer gets fucked.mp4
Format : MPEG-4
Format profile : Base Media
Codec ID : isom
File size : 676 MiB
Duration : 36mn 28s
Overall bit rate : 2 589 Kbps
Movie name : ita2_2.mp4
Writing application : Lavf52.108.0

Video
ID : 1
Format : AVC
Format/Info : Advanced Video Codec
Format profile : High@L3.0
Format settings, CABAC : Yes
Format settings, ReFrames : 3 frames
Codec ID : avc1
Codec ID/Info : Advanced Video Coding
Duration : 36mn 28s
Bit rate : 2 453 Kbps
Width : 720 pixels
Height : 480 pixels
Display aspect ratio : 3:2
Frame rate mode : Constant
Frame rate : 25.000 fps
Standard : NTSC
Color space : YUV
Chroma subsampling : 4:2:0
Bit depth : 8 bits
Scan type : Progressive
Bits/(Pixel*Frame) : 0.284
Stream size : 640 MiB (95%)
Color primaries : BT.601-6 525, BT.1358 525, BT.1700 NTSC, SMPTE 170M
Transfer characteristics : BT.709-5, BT.1361
Matrix coefficients : BT.601-6 525, BT.1358 525, BT.1700 NTSC, SMPTE 170M

Audio
ID : 2
Format : AAC
Format/Info : Advanced Audio Codec
Format profile : LC
Codec ID : 40
Duration : 36mn 28s
Bit rate mode : Constant
Bit rate : 128 Kbps
Channel(s) : 2 channels
Channel positions : Front: L R
Sampling rate : 48.0 KHz
Compression mode : Lossy
Delay relative to video : -3s 3ms
Stream size : 33.4 MiB (5%)
pb.wtf



pack Скачать через торрент http://i27.fastpic.ru/big/2012/0330/af/1845a3bc48a38a36df131da116e9ceaf.jpg Скачать фильм [AndreaNobiliProductions] Dany через торрент бесплантно в хорошем качестве Описание:After the photographer work, he gets fucked without ... 10 10 1
Info! Золотая раздача, скачанное не засчитывается.
Торрент: Зарегистрирован [2012-05-30 15:49] · скачан: 40 раз
Статус: √ проверено
Размер: 676 MB
Как cкачать? Как скачать через торрент | qTorrent

28-11-2019 20:33  

Отключить всю рекламу на сайте

    Дорогой пользователь! Огромная просьба, поблагодарите релизера, оцените раздачу и оставьте свои комментарий, если Вы скачали через торрент бесплатно! Внесите свою лепту в развитие PiratBit!
    Комментировать посты могут только пользователи прошедшие не сложную регистрацию
    Показать сообщения:    

    через торрент
    Скачать бесплатно
    скачать торрент
    смотреть онлайн
    Cкачать фильм бесплатно
    скачать торрент в хорошем качестве
    смотреть онлайн бесплатно в хорошем качестве


    Вы не можете начинать темы
    Вы не можете отвечать на сообщения
    Вы не можете редактировать свои сообщения
    Вы не можете удалять свои сообщения
    Вы не можете голосовать в опросах
    Вы не можете прикреплять файлы к сообщениям
    Вы можете скачивать файлы