1 сезон

3 сезон

iTunes

1

iTunes

MVO

iTunes

13

1 сезон

RePack

30

Deluxe

pack

Лицензия

ВАЖНО

ИГРА 18+

pack

RePack

MK11

RePack

jed

RePack

fifa19

RePack

RDR2

RePack

NEED FOR SPEED™ PAYBACK

4 сезон

9 сезон

Бесстыжие 9 сезон

Все сериалы

все сериалы на PB.wtf

RePack

FAR CRY 5

Anonymous, добрый день, мы катастрофически не успеваем собрать деньги на оплату серверов, помогите нам пожалуйста 5,10,15р., для нас важна любая помощь . В качестве благодарности мы отключим Вам всю рекламу на сайте (укажите свой ник в строку Ваше имя)!

×
  
Magnet ссылка

Дети сексу не помеха / Friends with Kids (Дженнифер Уэстфелд / Jennifer Westfeldt) [2011, комедия, DVD9] R5 pb.wtf

Дети сексу не помеха через торрент pb.wtf

Размер: 5.27 GB | Добавлен: 9 лет 1 мес. назад | Торрент скачан:71 раз
Скачать  

30-05-2012 22:22 Дети сексу не помеха Скачать торрент  


Дети сексу не помеха / Friends with Kids
«Family doesn't always go according to plan.»
Страна: США
Студия: Locomotive, Points West Pictures, Red Granite Pictures
Жанр: комедия
Год выпуска: 2011
Мировая премьера: 9 сентября 2011
Российская премьера: 3 мая 2012
Дата выхода DVD: 5 июня 2012
Дата выхода Blu-Ray: 5 июня 2012
Продолжительность: 01:43:04
Перевод: Профессиональный (дублированный) [Лицензия]
Cубтитры: нет
Режиссер: Дженнифер Уэстфелд / Jennifer Westfeldt
В ролях: Адам Скотт, Дженнифер Уэстфелд, Джон Хэмм, Кристен Уиг, Майя Рудольф, Крис О’Дауд, Меган Фокс, Эдвард Бёрнс, Ли Брайант, Келли Бишоп
Описание: Есть ли секс после свадьбы? Все знают: в медовый месяц — страстный, через пару лет — уже не очень. Но выход есть.
Джейсон и Джули решают завести ребенка, но при этом остаться только друзьями. Десять минут, девять месяцев — малыш готов. И уже Джейсон приударяет за шикарной брюнеткой, а Джули встречается с брутальным немцем. Но правда ли, что дети сексу не помеха?

Бонусы: нет

Качество: DVD9 R5
Формат: DVD-Video
Видео кодек: MPEG2
Аудио кодек: AC3
Видео: PAL 16:9 (720x576(0.612)) MPEG Video, 25,000 кадр/сек, 6348 Кбит/сек
Аудио: Russian (Dolby AC3, 6 ch) 448 Кбит/сек, 48,0 КГц



Title:
Size: 5.27 Gb ( 5 524 216 KBytes ) - DVD-9
Enabled regions: 1, 2, 3, 4, 5, 6, 7, 8

VTS_01 :
Play Length: 00:00:05
Video: PAL 4:3 (720x576) VBR

VTS_02 :
Play Length: 00:00:16
Video: PAL 16:9 (720x576) VBR, Auto Letterboxed
Audio:
Not specified (Dolby AC3, 2 ch)

VTS_03 :
Play Length: 00:00:07
Video: PAL 16:9 (720x576) VBR, Auto Letterboxed
Audio:
Not specified (Dolby AC3, 2 ch)

VTS_04 :
Play Length: 00:00:16
Video: PAL 16:9 (720x576) VBR, Auto Letterboxed
Audio:
Not specified (Dolby AC3, 2 ch)

VTS_05 :
Play Length: 01:43:04
Video: PAL 16:9 (720x576) VBR, Auto Letterboxed
Audio:
Russian (Dolby AC3, 6 ch)

VTS_06 :
Play Length: 00:02:26
Video: PAL 16:9 (720x576) VBR, Auto Letterboxed
Audio:
Not specified (Dolby AC3, 2 ch)
English (Dolby AC3, 2 ch)

Menu Video:
PAL 16:9 (720x576) VBR
Auto Pan&Scan, Auto Letterboxed
Menu Subtitles:
Not specified
Menu English Language Unit :
Root Menu
Общее
Полное имя : J:\Новинки 2012\Deti.seksu.ne.pomeha.2011.DVD9\VIDEO_TS\VTS_05_1.VOB
Формат : MPEG-PS
Размер файла : 1024 Мбайт
Продолжительность : 20 м.
Режим общего битрейта : Переменный
Общий поток : 6934 Кбит/сек

Видео
Идентификатор : 224 (0xE0)
Формат : MPEG Video
Версия формата : Version 2
Профиль формата : Main@Main
Параметр BVOP формата : Да
Параметр матрицы формата : По умолчанию
Параметр GOP формата : M=3, N=12
Продолжительность : 20 м.
Вид битрейта : Переменный
Битрейт : 6348 Кбит/сек
Максимальный битрейт : 8000 Кбит/сек
Ширина : 720 пикселей
Высота : 576 пикселей
Соотношение сторон : 16:9
Частота кадров : 25,000 кадров/сек
Стандарт вещания : PAL
Цветовое пространство : YUV
Субдискретизация насыщенности : 4:2:0
Битовая глубина : 8 бит
Тип развёртки : Прогрессивная
Метод сжатия : С потерями
Бит/(Пиксели*Кадры) : 0.612
Размер потока : 937 Мбайт (92%)

Аудио
Идентификатор : 189 (0xBD)-128 (0x80)
Формат : AC-3
Формат/Информация : Audio Coding 3
Расширение режима : CM (complete main)
Параметр Endianness формата : Big
Режим смешивания : DVD-Video
Продолжительность : 20 м.
Вид битрейта : Постоянный
Битрейт : 448 Кбит/сек
Каналы : 6 каналов
Расположение каналов : Front: L C R, Side: L R, LFE
Частота : 48,0 КГц
Битовая глубина : 16 бит
Метод сжатия : С потерями
Размер потока : 66,1 Мбайт (6%)










pb.wtf



Скачать Дети сексу не помеха через торрент http://i25.fastpic.ru/big/2012/0530/c2/ce76f009990856e0cc7d8fd1b4f98cc2.jpg Скачать фильм Дети сексу не помеха через торрент бесплантно в хорошем качестве Описание: Есть ли секс после свадьбы? Все знают: в медовый месяц — страстный, через пару лет — уже не очень. Но выход есть.Джейсон и Джули ... 10 10 1
Info! Золотая раздача, скачанное не засчитывается.
Торрент: Зарегистрирован [2012-05-30 22:22] · скачан: 71 раз
Статус: √ проверено
Размер: 5.27 GB
Как cкачать? Как скачать Дети сексу не помеха через торрент | UTorrent

28-11-2019 20:33  

Отключить всю рекламу на сайте

    Дорогой пользователь! Огромная просьба, поблагодарите релизера, оцените раздачу и оставьте свои комментарий, если Вы скачали Дети сексу не помеха через торрент бесплатно! Внесите свою лепту в развитие PiratBit!
    Комментировать посты могут только пользователи прошедшие не сложную регистрацию
    Показать сообщения:    

    Дети сексу не помеха через торрент
    Скачать бесплатно Дети сексу не помеха
    Дети сексу не помеха скачать торрент
    Дети сексу не помеха смотреть онлайн
    Cкачать фильм Дети сексу не помеха бесплатно
    Дети сексу не помеха скачать торрент в хорошем качестве
    Дети сексу не помеха смотреть онлайн бесплатно в хорошем качестве


    Вы не можете начинать темы
    Вы не можете отвечать на сообщения
    Вы не можете редактировать свои сообщения
    Вы не можете удалять свои сообщения
    Вы не можете голосовать в опросах
    Вы не можете прикреплять файлы к сообщениям
    Вы можете скачивать файлы