2 сезон

iTunes

MVO

1

2 сезон

iTunes

iTunes

1 сезон

RePack

30

Новинка

ВАЖНО

ИГРА 18+

pack

RePack

MK11
pack

Легкие деньги

RePack

jed

RePack

fifa19

RePack

RDR2

RePack

NEED FOR SPEED™ PAYBACK

4 сезон

9 сезон

Бесстыжие 9 сезон

Все сериалы

все сериалы на PB.wtf

RePack

FAR CRY 5

Anonymous, доброй ночи, мы не успеваем собрать деньги на оплату серверов за декабрь и январь, помогите нам пожалуйста в это трудное время. В качестве благодарности мы отключим Вам всю рекламу на сайте (укажите свой ник в строку Ваше имя)!

×
  
Magnet ссылка

[BlackTrannyWhackers/ShemaleStrokers] TS China (Returns To Drain Her Black Mamba!) [30.05.2012 г., Shemale, Solo, Masturbation, SiteRip] pb.wtf

[BlackTrannyWhackers через торрент pb.wtf

Размер: 262 MB | Добавлен: 8 лет 7 мес. назад | Торрент скачан:32 раза
Скачать  

30-05-2012 23:36 [BlackTrannyWhackers Скачать торрент  



TS China
Returns To Drain Her Black Mamba!
[30.05.2012 г.]

Год производства: 2012 г.
Жанр: Shemale, Solo, Masturbation
Продолжительность: 00:21:24

Студия: BlackTrannyWhackers.com/ShemaleStrokers.com
В ролях: TS China

Качество видео: SiteRip
Формат видео: WMV
Видео кодек: Windows Media
Аудио кодек: WMA
Видео: 29.970 fps, 1 500 Kbps, 960x540
Аудио: 128 kbps, 44 kHz, stereo CBR

Описание:

Hey, Its China and I'm back with a new look and felling sluttier than ever.
Let me change into something a bit more comfortable so we can have some fun.
This is much better! See my black joy-stick peeking out?
Thinking of you makes it want to get free.
I want to feel your warm mouth wrapped around my chocolate chew toy, sucking harder and harder.
Help me drain my black mamba of all its creamy venom which I'm sure you will gladly swallow for me.
General
Complete name : shemale-china2-scene.wmv
Format : Windows Media
File size : 262 MiB
Duration : 21mn 24s
Overall bit rate : 1 712 Kbps
Maximum Overall bit rate : 1 676 Kbps
Encoded date : UTC 2012-05-27 17:17:39.000

Video
ID : 1
Format : VC-1
Format profile : Main
Codec ID : WMV3
Codec ID/Info : Windows Media Video 9
Codec ID/Hint : WMV3
Description of the codec : Windows Media Video 9 - 2-pass VBR
Duration : 21mn 24s
Bit rate : 1 500 Kbps
Width : 960 pixels
Height : 540 pixels
Display aspect ratio : 16:9
Frame rate : 29.970 fps
Bit depth : 8 bits
Scan type : Progressive
Compression mode : Lossy
Bits/(Pixel*Frame) : 0.097
Stream size : 230 MiB (88%)

Audio
ID : 2
Format : WMA
Format version : Version 2
Codec ID : 161
Codec ID/Info : Windows Media Audio
Description of the codec : Windows Media Audio 9 - 128 kbps, 44 kHz, stereo CBR
Duration : 21mn 24s
Bit rate : 128 Kbps
Channel(s) : 2 channels
Sampling rate : 44.1 KHz
Bit depth : 16 bits
Stream size : 19.6 MiB (7%)
pb.wtf



pack Скачать [BlackTrannyWhackers через торрент http://i25.fastpic.ru/big/2012/0531/2f/f5562b9125a4669daa59fd509a901a2f.jpg Скачать фильм [BlackTrannyWhackersчерез торрент бесплантно в хорошем качестве Описание: Hey, Its China and I'm back with a new look and felling sluttier than ever.Let me change into something a bit more ... 3 10 2
Info! Золотая раздача, скачанное не засчитывается.
Торрент: Зарегистрирован [2012-05-30 23:44] · скачан: 32 раз
Статус: √ проверено
Размер: 262 MB
Как cкачать? Как скачать [BlackTrannyWhackers через торрент | UTorrent

28-11-2019 20:33  

Отключить всю рекламу на сайте

30-05-2012 23:49 [BlackTrannyWhackers Скачать торрент  

Прошу модератора при проверке этой раздачи убрать из кода надпись:
[BlackTrannyWhackers.com/ShemaleStrokers.com]
только надпись и больше ни чего, тогда код встанет на место как положено.
Спасибо.
P.S. Очень не удобно что в данном разделе отсутствует опция правки кода.pb.wtf



pack

31-05-2012 12:29 [BlackTrannyWhackers Скачать торрент  

rixt, привет, дружище!
Такого ли результата ты хотел достичь?pb.wtf



pack

31-05-2012 13:09 [BlackTrannyWhackers Скачать торрент  

Pir@tya2010 писал(а):

привет, дружище!
Такого ли результата ты хотел достичь?

Спасибо ! Именно такой результат самый подходящий ! :good: pb.wtf



pack
    Дорогой пользователь! Огромная просьба, поблагодарите релизера, оцените раздачу и оставьте свои комментарий, если Вы скачали [BlackTrannyWhackers через торрент бесплатно! Внесите свою лепту в развитие PiratBit!
    Комментировать посты могут только пользователи прошедшие не сложную регистрацию
    Показать сообщения:    

    [BlackTrannyWhackers через торрент
    Скачать бесплатно [BlackTrannyWhackers
    [BlackTrannyWhackers скачать торрент
    [BlackTrannyWhackers смотреть онлайн
    Cкачать фильм [BlackTrannyWhackers бесплатно
    [BlackTrannyWhackers скачать торрент в хорошем качестве
    [BlackTrannyWhackers смотреть онлайн бесплатно в хорошем качестве


    Вы не можете начинать темы
    Вы не можете отвечать на сообщения
    Вы не можете редактировать свои сообщения
    Вы не можете удалять свои сообщения
    Вы не можете голосовать в опросах
    Вы не можете прикреплять файлы к сообщениям
    Вы можете скачивать файлы