новый адрес пиратбит piratbit
Мега распродажа FORZA HORIZON 4 ULTIMATE+ВСЕ DLC+ОНЛАЙН всего за 499р. 349 руб. (супер цена). Внимание количество ограничено!!!

iTunes

1+1

iTunes

мы

iTunes

1

iTunes

Чернобыль

iTunes

Ральф против интернета

Лицензия

ПШазам

Лицензия

Игра престолов

Лицензия

30
pack

ВАЖНО

!!Акция!!

Alien_RageХит недели

RePack

Resident Evil 21

ИГРА 18+

pack

RePack

Metro:Exodus

!!Акция!!

Alien_Rage

RePack

fifa19

RePack

Assassins Creed: Odyssey

RePack

NEED FOR SPEED™ PAYBACK

3 сезон

9 сезон

Бесстыжие 9 сезон

Все сериалы

все сериалы на PB.wtf

RePack

FAR CRY 5
Ребята, катастрофически не хватает 1900р. для оплаты серверов за Октябрь (всвязи с блокировками трафик упал в 3 раза), 1-2р., выручайте.
  

Всё наоборот (Виталий Фетисов, Владимир Грамматиков) [1983 г., мелодрама, комедия, DVDRip, Оригинал] pb.wtf

Всё наоборот через торрент pb.wtf

Размер: 700 MB | Добавлен: 7 лет 5 мес. назад | Торрент скачан:16 раз
Скачать  

01-06-2012 09:23 Всё наоборот Скачать торрент  

Всё наоборот

Год выпуска: 1983
Страна: СССР
Жанр: мелодрама, комедия
Продолжительность: 01:05:11
Перевод: Оригинал

Режиссер: Виталий Фетисов, Владимир Грамматиков
Сценарий: Павел Лунгин

Премьера в мире: 22 марта 1982

IMDB 4.50 (26)


В ролях: Ольга Машная, Михаил Ефремов, Олег Табаков, Светлана Немоляева, Александр Пашутин, Лилия Захарова, Альфия Хабибулина, Игорь Штернберг, Владимир Грамматиков, Авангард Леонтьев

Описание: Герой фильма уверен: настоящая любовь всегда подобна внезапной вспышке, озарению; неВ ошибается вВ любви только тот, ктоВ доверяет своей интуиции. Вскоре ему, ученику выпускного класса, предоставляется шанс проверить этуВ теорию наВ практике.Влюбившись вВ случайно встреченную наВ улице симпатичную сверстницу онВ решает, чтоВ это — судьба, чтоВ надо немедленно жениться иВ отделяться отВ родителей. КВ счастью, последствия В«экспериментаВ» окажутся неВ слишком болезненными...

Качество: DVDRip
Формат: AVI
Видео кодек: XviD
Аудио кодек: MP3
Видео: 672x336 (2.00:1), 25 fps, XviD MPEG-4 ~1362 kbps avg
Аудио#1: 48 kHz, MPEG Layer 3, 2 ch, ~128.00 kbps avg



Общее
Полное имя : F:\Закачки\Vseo.Naoborot1982.DVDRip.avi
Формат : AVI
Формат/Информация : Audio Video Interleave
Размер файла : 700 Мбайт
Продолжительность : 1 ч. 5 м.
Общий поток : 1500 Кбит/сек
Программа кодирования : VirtualDubModRus 1.5.10.2 (build 2542/release)
Библиотека кодирования : VirtualDubMod build 2542/release

Видео
Идентификатор : 0
Формат : MPEG-4 Visual
Профиль формата : Advanced Simple@L5
Параметр BVOP формата : 2
Параметр QPel формата : Нет
Параметр GMC формата : Без точки перехода
Параметр матрицы формата : Default (MPEG)
Режим смешивания : Сжатый битовый поток
Идентификатор кодека : XVID
Идентификатор кодека/Подсказка : XviD
Продолжительность : 1 ч. 5 м.
Битрейт : 1363 Кбит/сек
Ширина : 672 пикселя
Высота : 336 пикселей
Соотношение сторон : 2,000
Частота кадров : 25,000 кадров/сек
Цветовое пространство : YUV
Субдискретизация насыщенности : 4:2:0
Битовая глубина : 8 бит
Тип развёртки : Прогрессивная
Метод сжатия : С потерями
Бит/(Пиксели*Кадры) : 0.241
Размер потока : 635 Мбайт (91%)
Библиотека кодирования : XviD 1.2.1 (UTC 2008-12-04)

Аудио
Идентификатор : 1
Формат : MPEG Audio
Версия формата : Version 1
Профиль формата : Layer 3
Идентификатор кодека : 55
Идентификатор кодека/Подсказка : MP3
Продолжительность : 1 ч. 5 м.
Вид битрейта : Постоянный
Битрейт : 128 Кбит/сек
Каналы : 2 канала
Частота : 48,0 КГц
Метод сжатия : С потерями
Размер потока : 59,7 Мбайт (9%)
Выравнивание : Соединение по промежуткам
Продолжительность промежутка : 40 мс. (1,00 видеокадр)
Время предзагрузки промежутка : 504 мс.
Библиотека кодирования : LAME3.97
Настройки программы : -m s -V 4 -q 1 -b 128

pb.wtf



Скачать Всё наоборот через торрент http://pic.kartinco.top/images/2000/pa6fxn26tc.jpg Скачать фильм Всё наоборот через торрент бесплантно в хорошем качестве Описание: Герой фильма уверен: настоящая любовь всегда подобна внезапной вспышке, озарению; неВ ошибается вВ любви только тот, ... 10 10 2
Info! Золотая раздача, скачанное не засчитывается.
Торрент: Зарегистрирован [2012-06-01 09:23] · скачан: 16 раз
Статус: √ проверено
Размер: 700 MB
Как cкачать? Как скачать Всё наоборот через торрент | qTorrent

% Раздел Тема Автор DL S | L
Фильмы до 2000 г. [ 1.45 GB ] Все наоборот / Vice Versa [1988 г HDRip] 2xMVO koenig Скачать
1 | 0


>> Регистрируемся здесь <<






Отзывы и комментарии о схеме читаем и пишем здесь: ---> Отзывы и комментарии о схеме

Новые благодарочки в телеграм довольных пользователей:
скриншот   скриншот   скриншот   скриншот   скриншот
    Дорогой пользователь! Огромная просьба, поблагодарите релизера, оцените раздачу и оставьте свои комментарий, если Вы скачали Всё наоборот через торрент бесплатно! Внесите свою лепту в развитие PiratBit!
    Комментировать посты могут только пользователи прошедшие не сложную регистрацию
    Показать сообщения:    

    Всё наоборот через торрент
    Скачать бесплатно Всё наоборот
    Всё наоборот скачать торрент
    Всё наоборот смотреть онлайн
    Cкачать фильм Всё наоборот бесплатно
    Всё наоборот скачать торрент в хорошем качестве
    Всё наоборот смотреть онлайн бесплатно в хорошем качестве


    Вы не можете начинать темы
    Вы не можете отвечать на сообщения
    Вы не можете редактировать свои сообщения
    Вы не можете удалять свои сообщения
    Вы не можете голосовать в опросах
    Вы не можете прикреплять файлы к сообщениям
    Вы можете скачивать файлы