1 сезон

3 сезон

iTunes

1

iTunes

MVO

iTunes

13

1 сезон

RePack

30

Deluxe

pack

Лицензия

ВАЖНО

ИГРА 18+

pack

RePack

MK11

RePack

jed

RePack

fifa19

RePack

RDR2

RePack

NEED FOR SPEED™ PAYBACK

4 сезон

9 сезон

Бесстыжие 9 сезон

Все сериалы

все сериалы на PB.wtf

RePack

FAR CRY 5

Anonymous, добрый вечер, мы катастрофически не успеваем собрать деньги на оплату серверов, помогите нам пожалуйста 5,10,15р., для нас важна любая помощь . В качестве благодарности мы отключим Вам всю рекламу на сайте (укажите свой ник в строку Ваше имя)!

×
  
Magnet ссылка

Контрабанда / Contraband (Бальтасар Кормакур / Baltasar Kormákur) [2012, боевик, триллер, драма, криминал, DVD9] R5 pb.wtf

Контрабанда через торрент pb.wtf

Размер: 6.93 GB | Добавлен: 9 лет 1 мес. назад | Торрент скачан:99 раз
Скачать  

03-06-2012 17:17 Контрабанда Скачать торрент  


Контрабанда / Contraband
«Большой куш. Крутая команда. Смертельный риск.»
Страна: США, Франция, Великобритания
Студия: Blueeyes Productions, Closest to the Hole Productions, Farraday Films, Leverage Entertainment, Leverage Management, Relativity Media, Studio Canal, Universal Pictures, Working Title Films
Жанр: боевик, триллер, драма, криминал
Год выпуска: 2012
Мировая премьера: 12 января 2012
Российская премьера: 12 января 2012
Дата выхода DVD: 31 мая 2012
Дата выхода Blu-Ray: 31 мая 2012
Продолжительность: 01:45:06
Перевод: Профессиональный (дублированный) [Лицензия]
Cубтитры: английские, русские, румынские, украинские, эстонские, латышские, литовские
Оригинальная аудиодорожка: английский
Режиссер: Бальтасар Кормакур / Baltasar Kormákur
В ролях: Кейт Бекинсейл, Марк Уолберг, Бен Фостер, Джованни Рибизи, Лукас Хаас Дж.К. Симмонс, Диего Луна, Жаклин Флеминг, Роберт Уолберг, Калеб Лэндри Джонс
Описание: Мир контрабандистов — это большие ставки и огромный риск. Cтоит оступиться лишь раз, и тебя ждет смерть. В этом мире Крис был лучшим, его называли Гудини, но он вышел из игры, женился и начал новую жизнь…
Бонусы: Фактор реальности: создание самых захватывающих сцен фильма, комментарии режиссера и продюсера

Релиз группы:
Качество: DVD9 R5
Формат: DVD-Video
Видео кодек: MPEG2
Аудио кодек: AC3
Видео: PAL 16:9 (720x576(0.722)) MPEG Video, 25,000 кадр/сек, 7487 Кбит/сек
Аудио #1: English (Dolby AC3, 6 ch) 384 Кбит/сек, 48,0 КГц
Аудио #2: Russian (Dolby AC3, 6 ch) 384 Кбит/сек, 48,0 КГц
Аудио #3: English (Dolby AC3, 2 ch) 192 Кбит/сек, 48,0 КГц



Title:
Size: 6.93 Gb ( 7 264 002 KBytes ) - DVD-9
Enabled regions: 1, 2, 3, 4, 5, 6, 7, 8

VTS_01 :
Play Length:
Video: PAL 16:9 (720x576) VBR, Auto Letterboxed
Audio:
Not specified (Dolby AC3, 2 ch)
Not specified (Dolby AC3, 2 ch)
Not specified (Dolby AC3, 2 ch)
Not specified (Dolby AC3, 2 ch)
Not specified (Dolby AC3, 2 ch)
Not specified (Dolby AC3, 2 ch)
Not specified (Dolby AC3, 2 ch)
Not specified (Dolby AC3, 2 ch)
Subtitles:
Not specified
Not specified
Not specified
Not specified
Not specified
Not specified
Not specified
Not specified
Not specified
Not specified
Not specified
Not specified
Not specified
Not specified
Not specified
Not specified
Not specified
Not specified
Not specified
Not specified
Not specified
Not specified
Not specified
Not specified
Not specified
Not specified
Not specified
Not specified
Not specified
Not specified
Not specified

VTS_02 :
Play Length: 00:07:57
Video: PAL 16:9 (720x576) VBR, Auto Letterboxed
Audio:
English (Dolby AC3, 2 ch)
Subtitles:
English
Russian
Romanian

VTS_03 :
Play Length: 00:00:08
Video: PAL 16:9 (720x576) VBR, Auto Letterboxed
Audio:
English (Dolby AC3, 2 ch)

VTS_04 :
Play Length: 00:02:24
Video: PAL 16:9 (720x576) VBR, Auto Letterboxed
Audio:
English (Dolby AC3, 2 ch)
Subtitles:
English
Russian
Romanian

VTS_05 :
Play Length: 00:01:52
Video: PAL 16:9 (720x576) VBR, Auto Letterboxed
Audio:
English (Dolby AC3, 2 ch)
Subtitles:
English
Russian
Romanian

VTS_06 :
Play Length:
Video: PAL 16:9 (720x576) VBR, Auto Letterboxed

VTS_07 :
Play Length: 00:02:00+00:01:35
Video: PAL 16:9 (720x576) VBR, Auto Letterboxed
Audio:
English (Dolby AC3, 2 ch)
Subtitles:
English
Russian
Romanian

VTS_08 :
Play Length:
Video: PAL 4:3 (720x576) VBR

VTS_09 :
Play Length:
Video: PAL 16:9 (720x576) VBR, Auto Letterboxed

VTS_10 :
Play Length: 00:00:23
Video: PAL 16:9 (720x576) VBR, Auto Letterboxed
Audio:
English (Dolby AC3, 6 ch)

VTS_11 :
Play Length: 00:00:14
Video: PAL 16:9 (720x576) VBR, Auto Letterboxed
Audio:
English (Dolby AC3, 6 ch)

VTS_12 :
Play Length: 01:45:06
Video: PAL 16:9 (720x576) VBR, Auto Letterboxed
Audio:
English (Dolby AC3, 6 ch)
Russian (Dolby AC3, 6 ch)
English (Dolby AC3, 2 ch)
Subtitles:
English
Russian
Romanian
Ukrainian
Estonian
Latvian
Lithuanian
English
English
Russian
Общее
Полное имя : J:\Новинки 2012\Kontrabanda.2012.DVD9\VIDEO_TS\VTS_12_1.VOB
Формат : MPEG-PS
Размер файла : 1024 Мбайт
Продолжительность : 16 м.
Режим общего битрейта : Переменный
Общий поток : 8619 Кбит/сек

Видео
Идентификатор : 224 (0xE0)
Формат : MPEG Video
Версия формата : Version 2
Профиль формата : Main@Main
Параметр BVOP формата : Да
Параметр матрицы формата : Выборочная
Продолжительность : 16 м.
Вид битрейта : Переменный
Битрейт : 7487 Кбит/сек
Максимальный битрейт : 9800 Кбит/сек
Ширина : 720 пикселей
Высота : 576 пикселей
Соотношение сторон : 16:9
Частота кадров : 25,000 кадров/сек
Стандарт вещания : PAL
Цветовое пространство : YUV
Субдискретизация насыщенности : 4:2:0
Битовая глубина : 8 бит
Тип развёртки : Чересстрочная
Порядок развёртки : Верхнее поле первое
Метод сжатия : С потерями
Бит/(Пиксели*Кадры) : 0.722
Размер потока : 890 Мбайт (87%)

Аудио #1
Идентификатор : 189 (0xBD)-128 (0x80)
Формат : AC-3
Формат/Информация : Audio Coding 3
Расширение режима : CM (complete main)
Параметр Endianness формата : Big
Режим смешивания : DVD-Video
Продолжительность : 16 м.
Вид битрейта : Постоянный
Битрейт : 384 Кбит/сек
Каналы : 6 каналов
Расположение каналов : Front: L C R, Side: L R, LFE
Частота : 48,0 КГц
Битовая глубина : 16 бит
Метод сжатия : С потерями
Размер потока : 45,6 Мбайт (4%)

Аудио #2
Идентификатор : 189 (0xBD)-129 (0x81)
Формат : AC-3
Формат/Информация : Audio Coding 3
Расширение режима : CM (complete main)
Параметр Endianness формата : Big
Режим смешивания : DVD-Video
Продолжительность : 16 м.
Вид битрейта : Постоянный
Битрейт : 384 Кбит/сек
Каналы : 6 каналов
Расположение каналов : Front: L C R, Side: L R, LFE
Частота : 48,0 КГц
Битовая глубина : 16 бит
Метод сжатия : С потерями
Размер потока : 45,6 Мбайт (4%)

Аудио #3
Идентификатор : 189 (0xBD)-130 (0x82)
Формат : AC-3
Формат/Информация : Audio Coding 3
Профиль формата : Dolby Digital
Расширение режима : CM (complete main)
Параметр Endianness формата : Big
Режим смешивания : DVD-Video
Продолжительность : 16 м.
Вид битрейта : Постоянный
Битрейт : 192 Кбит/сек
Каналы : 2 канала
Расположение каналов : Front: L R
Частота : 48,0 КГц
Битовая глубина : 16 бит
Метод сжатия : С потерями
Размер потока : 22,8 Мбайт (2%)

Текст #1
Идентификатор : 189 (0xBD)-32 (0x20)
Формат : RLE
Формат/Информация : Run-length encoding
Режим смешивания : DVD-Video

Текст #2
Идентификатор : 189 (0xBD)-33 (0x21)
Формат : RLE
Формат/Информация : Run-length encoding
Режим смешивания : DVD-Video

Текст #3
Идентификатор : 189 (0xBD)-34 (0x22)
Формат : RLE
Формат/Информация : Run-length encoding
Режим смешивания : DVD-Video

Текст #4
Идентификатор : 189 (0xBD)-35 (0x23)
Формат : RLE
Формат/Информация : Run-length encoding
Режим смешивания : DVD-Video

Текст #5
Идентификатор : 189 (0xBD)-36 (0x24)
Формат : RLE
Формат/Информация : Run-length encoding
Режим смешивания : DVD-Video

Текст #6
Идентификатор : 189 (0xBD)-37 (0x25)
Формат : RLE
Формат/Информация : Run-length encoding
Режим смешивания : DVD-Video

Текст #7
Идентификатор : 189 (0xBD)-38 (0x26)
Формат : RLE
Формат/Информация : Run-length encoding
Режим смешивания : DVD-Video

Текст #8
Идентификатор : 189 (0xBD)-39 (0x27)
Формат : RLE
Формат/Информация : Run-length encoding
Режим смешивания : DVD-Video










pb.wtf



Скачать Контрабанда через торрент http://i26.fastpic.ru/big/2012/0603/39/71ffe1e63db8a09be3a5719a6b967739.jpg Скачать фильм Контрабанда через торрент бесплантно в хорошем качестве Описание: Мир контрабандистов — это большие ставки и огромный риск. Cтоит оступиться лишь раз, и тебя ждет смерть. В этом мире Крис был ... 5 10 9
Info! Золотая раздача, скачанное не засчитывается.
Торрент: Зарегистрирован [2012-06-03 17:17] · скачан: 99 раз
Статус: √ проверено
Размер: 6.93 GB
Как cкачать? Как скачать Контрабанда через торрент | UTorrent

% Раздел Тема Автор DL S | L
Фильмы (HD 720p, 1080p) (48-60 fps) [ 4.01 GB ] Контрабанда / Contraband [2012 BDRip 720p / 60 FPS ] от R.G. HD-Films slaventi-69 Скачать
1 | 0

28-11-2019 20:33  

Отключить всю рекламу на сайте

    Дорогой пользователь! Огромная просьба, поблагодарите релизера, оцените раздачу и оставьте свои комментарий, если Вы скачали Контрабанда через торрент бесплатно! Внесите свою лепту в развитие PiratBit!
    Комментировать посты могут только пользователи прошедшие не сложную регистрацию
    Показать сообщения:    

    Контрабанда через торрент
    Скачать бесплатно Контрабанда
    Контрабанда скачать торрент
    Контрабанда смотреть онлайн
    Cкачать фильм Контрабанда бесплатно
    Контрабанда скачать торрент в хорошем качестве
    Контрабанда смотреть онлайн бесплатно в хорошем качестве


    Вы не можете начинать темы
    Вы не можете отвечать на сообщения
    Вы не можете редактировать свои сообщения
    Вы не можете удалять свои сообщения
    Вы не можете голосовать в опросах
    Вы не можете прикреплять файлы к сообщениям
    Вы можете скачивать файлы