2 сезон

iTunes

1 сезон

1

iTunes

iTunes

iTunes

1 сезон

RePack

30

ИГРА 18+

pack

ВАЖНО

!!Акция!!

Alien_RageХит недели

RePack

MK11
pack

Забери бонус

RePack

jed

!!Акция!!

Alien_Rage

RePack

fifa19

RePack

Assassins Creed: Odyssey

RePack

NEED FOR SPEED™ PAYBACK

4 сезон

9 сезон

Бесстыжие 9 сезон

Все сериалы

все сериалы на PB.wtf

RePack

FAR CRY 5
  

Свадебный разгром / A Few Best Men (Стефан Эллиотт) [2011 г., комедия, BDRip (1080p), DUB (лицензия)] pb.wtf

Свадебный разгром через торрент pb.wtf

Размер: 7.78 GB | Добавлен: 8 лет 4 мес. назад | Торрент скачан:256 раз
Скачать  

06-06-2012 09:16 Свадебный разгром Скачать торрент  

Свадебный разгром / A Few Best Men

Год выпуска: 2011
Страна: США, Великобритания, Австралия
Жанр: комедия
Продолжительность: 01:36:32
Перевод: Дубляж (Лицензия)
Тип релиза: Лицензя

Режиссер: Стефан Эллиотт
Продюссер: Антония Барнард, Гари Хэмилтон, Лоуренс Малкин

Бюджет: AUD 14 000 000

IMDB 5.90 (1 622)


В ролях: Завьер Сэмюэл, Крис Маршалл, Кевин Бишоп, Тим Драксл, Лаура Брент, Ребел Уилсон, Оливия Ньютон-Джон, Джонатан Биггинс, Стив Ле Маркванд, Solveig Walking, Прохор Чеховской, Иван Жарков, Диомид Виноградов, Сергей Смирнов, Ольга Зубкова

Описание: Как празднуют свадьбу вВ Австралии? ДаВ круче, чемВ новый годВ в России. Шикарная церемония, море алкоголя иВ тройка верных друзей, решивших оторваться наВ полную катушку. Сможет лиВ настоящая любовь пережить этиВ испытания?

Качество: BDRip (1080p)
Формат: MKV
Видео кодек: AVC
Аудио кодек: AC3
Видео: AVC, 1920x804 (2.35:1), 23.976 fps, 10,9 Мбит/сек
Аудио: AC-3, 448 Кбит/сек, 6 канала(ов), 48,0 КГц

General
Unique ID : 175220418819378935931329934189929179796 (0x83D239A33FBBED2EA993912E1B082A94)
Complete name : D:\Svadebnyj.razgrom.1080p_[piratbit.cc]_.mkv
Format : Matroska
Format version : Version 2
File size : 7.78 GiB
Duration : 1h 36mn
Overall bit rate mode : Variable
Overall bit rate : 11.5 Mbps
Movie name : A_FEW_BEST_MEN_BD_BLUEBIRD.Title13.BlurayRip
Encoded date : UTC 2012-06-05 22:30:37
Writing application : DVDFab
Writing library : libebml v0.7.8 + libmatroska v0.8.1

Video
ID : 1
Format : AVC
Format/Info : Advanced Video Codec
Format profile : High@L5.1
Format settings, CABAC : Yes
Format settings, ReFrames : 2 frames
Format settings, GOP : M=3, N=15
Codec ID : V_MPEG4/ISO/AVC
Duration : 1h 36mn
Bit rate mode : Variable
Bit rate : 10.9 Mbps
Maximum bit rate : 16.7 Mbps
Width : 1 920 pixels
Height : 804 pixels
Display aspect ratio : 2.40:1
Frame rate : 23.976 fps
Color space : YUV
Chroma subsampling : 4:2:0
Bit depth : 8 bits
Scan type : Progressive
Bits/(Pixel*Frame) : 0.293
Stream size : 7.32 GiB (94%)

Audio
ID : 2
Format : AC-3
Format/Info : Audio Coding 3
Mode extension : CM (complete main)
Codec ID : A_AC3
Duration : 1h 36mn
Bit rate mode : Constant
Bit rate : 448 Kbps
Channel(s) : 6 channels
Channel positions : Front: L C R, Side: L R, LFE
Sampling rate : 48.0 KHz
Bit depth : 16 bits
Compression mode : Lossy
Stream size : 310 MiB (4%)

Menu
00:00:00.000 : en:(01)00:00:00:000
00:06:24.384 : en:(02)00:06:24:384
00:13:06.952 : en:(03)00:13:06:952
00:21:35.460 : en:(04)00:21:35:460
00:27:30.732 : en:(05)00:27:30:732
00:35:51.023 : en:(06)00:35:51:023
00:40:36.684 : en:(07)00:40:36:684
00:45:10.416 : en:(08)00:45:10:416
00:53:07.726 : en:(09)00:53:07:726
00:57:27.694 : en:(10)00:57:27:694
01:06:07.755 : en:(11)01:06:07:755
01:13:25.317 : en:(12)01:13:25:317
01:20:57.602 : en:(13)01:20:57:602
01:25:14.192 : en:(14)01:25:14:192
01:31:01.414 : en:(15)01:31:01:414
01:36:34.872 : en:(16)01:36:34:872

pb.wtf



Скачать Свадебный разгром через торрент http://i26.fastpic.ru/big/2012/0607/4c/878b4b4a26143e1a2e1dbf61f1881b4c.png Скачать фильм Свадебный разгром через торрент бесплантно в хорошем качестве Описание: Как празднуют свадьбу вВ Австралии? ДаВ круче, чемВ новый годВ в России. Шикарная церемония, море алкоголя иВ тройка верных ... 10 10 1
Info! Золотая раздача, скачанное не засчитывается.
Торрент: Зарегистрирован [2012-06-06 09:16] · скачан: 256 раз
Статус: √ проверено
Размер: 7.78 GB
Как cкачать? Как скачать Свадебный разгром через торрент | qTorrent

% Раздел Тема Автор DL S | L
Фильмы 2011 [ 2.18 GB ] Свадебный разгром / A Few Best Men [2011 BDRip-AVC] DUB + Original + Sub potroks Скачать
1 | 0
Фильмы 2011 [ 1.46 GB ] Свадебный разгром / A Few Best Men [2011 BDRip DUB лицензия] maygli Скачать
1 | 0
Фильмы 2011 [ 2.05 GB ] Свадебный разгром / A Few Best Men [2011 Австралия HDRip] DUB + Original Eng Mr. Freeman Скачать
1 | 0
Фильмы (DVD фильмы) [ 6.93 GB ] Свадебный разгром / A Few Best Men [2011 DVD9] R5 voovaz Скачать
1 | 0
Фильмы 2011 [ 691 MB ] Свадебный разгром / A Few Best Men [2011 HDRip DUB ] Newton5 Скачать
1 | 0
Фильмы [HD 720p, 1080p] (Хороший звук DUB, MVO) [ 4.67 GB ] Свадебный разгром / A Few Best Men [2011 BDRip DUB ] ~Relizer~ Скачать
1 | 0
Фильмы 2011 [ 967 MB ] Свадебный разгром / A Few Best Men [2011 BDRip-AVC] DUB slaventi-69 Скачать
1 | 0


Последний раз редактировалось: DEVI (2012-06-06 23:49), всего редактировалось 4 раз(а)

28-11-2019 20:33  

Отключить всю рекламу на сайте

06-06-2012 23:47 Свадебный разгром Скачать торрент  

спасибо

Код:

http://i26.fastpic.ru/big/2012/0607/4c/878b4b4a26143e1a2e1dbf61f1881b4c.png

pb.wtf



    Дорогой пользователь! Огромная просьба, поблагодарите релизера, оцените раздачу и оставьте свои комментарий, если Вы скачали Свадебный разгром через торрент бесплатно! Внесите свою лепту в развитие PiratBit!
    Комментировать посты могут только пользователи прошедшие не сложную регистрацию
    Показать сообщения:    

    Свадебный разгром через торрент
    Скачать бесплатно Свадебный разгром
    Свадебный разгром скачать торрент
    Свадебный разгром смотреть онлайн
    Cкачать фильм Свадебный разгром бесплатно
    Свадебный разгром скачать торрент в хорошем качестве
    Свадебный разгром смотреть онлайн бесплатно в хорошем качестве


    Вы не можете начинать темы
    Вы не можете отвечать на сообщения
    Вы не можете редактировать свои сообщения
    Вы не можете удалять свои сообщения
    Вы не можете голосовать в опросах
    Вы не можете прикреплять файлы к сообщениям
    Вы можете скачивать файлы