2 сезон

iTunes

MVO

1

2 сезон

iTunes

iTunes

1 сезон

RePack

30

Новинка

ВАЖНО

ИГРА 18+

pack

RePack

MK11
pack

Легкие деньги

RePack

jed

RePack

fifa19

RePack

RDR2

RePack

NEED FOR SPEED™ PAYBACK

4 сезон

9 сезон

Бесстыжие 9 сезон

Все сериалы

все сериалы на PB.wtf

RePack

FAR CRY 5

Anonymous, добрый день, мы не успеваем собрать деньги на оплату серверов за декабрь и январь, помогите нам пожалуйста в это трудное время. В качестве благодарности мы отключим Вам всю рекламу на сайте (укажите свой ник в строку Ваше имя)!

×
  
Magnet ссылка

[ShemaleStrokers] TS Holly Sweet (Works Her T-Clitty Just For You!) [04.06.2012 г., Shemale, Big Boobed, Solo, Masturbation, SiteRip] pb.wtf

через торрент pb.wtf

Размер: 240 MB | Добавлен: 8 лет 7 мес. назад | Торрент скачан:74 раза
Скачать  

06-06-2012 10:21 Скачать торрент  

[ShemaleStrokers.com]
TS Holly Sweet
Works Her T-Clitty Just For You!
[04.06.2012 г.]

Год производства: 2012 г.
Жанр: Shemale, Big Boobed, Solo, Masturbation
Продолжительность: 00:19:00

Студия: ShemaleStrokers.com
В ролях: TS Holly Sweet

Качество видео: SiteRip
Формат видео: WMV
Видео кодек: Windows Media
Аудио кодек: WMA
Видео: 29.970 fps, 1 600 Kbps, 640x480
Аудио: 128 kbps, 44 kHz, stereo CBR

Описание:
Hi, I'm TS Holly, a beautiful sexy she-male currently living in Chicago,
but moving soon to Ft. Lauderdale, Florida.
I've got what may be the biggest most luscious breasts of any well known TS in the country,
and my extra something down below ain't too bad either.
Especially when I get it so worked up that it shoots a big thick white creamy shemale load.

General
Complete name : shemale-hollysweet2-scene.wmv
Format : Windows Media
File size : 240 MiB
Duration : 19mn 0s
Overall bit rate : 1 768 Kbps
Maximum Overall bit rate : 1 732 Kbps
Encoded date : UTC 2012-05-27 05:26:21.000

Video
ID : 1
Format : VC-1
Format profile : Main
Codec ID : WMV3
Codec ID/Info : Windows Media Video 9
Codec ID/Hint : WMV3
Description of the codec : Windows Media Video 9 - 2-pass VBR
Duration : 19mn 0s
Bit rate : 1 600 Kbps
Width : 640 pixels
Height : 480 pixels
Display aspect ratio : 4:3
Frame rate : 29.970 fps
Bit depth : 8 bits
Scan type : Progressive
Compression mode : Lossy
Bits/(Pixel*Frame) : 0.174
Stream size : 218 MiB (90%)

Audio
ID : 2
Format : WMA
Format version : Version 2
Codec ID : 161
Codec ID/Info : Windows Media Audio
Description of the codec : Windows Media Audio 9 - 128 kbps, 44 kHz, stereo CBR
Duration : 19mn 0s
Bit rate : 128 Kbps
Channel(s) : 2 channels
Sampling rate : 44.1 KHz
Bit depth : 16 bits
Stream size : 17.4 MiB (7%)
pb.wtf



pack Скачать через торрент http://i36.fastpic.ru/big/2012/0517/3c/e07d4468f5749fdceeaab97e9d730d3c.jpg Скачать фильм [ShemaleStrokers] TS Holly Sweet через торрент бесплантно в хорошем качестве Описание:Hi, I'm TS Holly, a beautiful sexy she-male currently living in Chicago,but moving soon to Ft. Lauderdale, Florida.I've got what ... 2.3 10 3
Info! Золотая раздача, скачанное не засчитывается.
Торрент: Зарегистрирован [2012-06-06 10:21] · скачан: 74 раз
Статус: √ проверено
Размер: 240 MB
Как cкачать? Как скачать через торрент | UTorrent

28-11-2019 20:33  

Отключить всю рекламу на сайте

    Дорогой пользователь! Огромная просьба, поблагодарите релизера, оцените раздачу и оставьте свои комментарий, если Вы скачали через торрент бесплатно! Внесите свою лепту в развитие PiratBit!
    Комментировать посты могут только пользователи прошедшие не сложную регистрацию
    Показать сообщения:    

    через торрент
    Скачать бесплатно
    скачать торрент
    смотреть онлайн
    Cкачать фильм бесплатно
    скачать торрент в хорошем качестве
    смотреть онлайн бесплатно в хорошем качестве


    Вы не можете начинать темы
    Вы не можете отвечать на сообщения
    Вы не можете редактировать свои сообщения
    Вы не можете удалять свои сообщения
    Вы не можете голосовать в опросах
    Вы не можете прикреплять файлы к сообщениям
    Вы можете скачивать файлы