1 сезон

1 сезон

iTunes

1

КиноПоиск HD

Кинопоиск HD

iTunes

13

1 сезон

RePack

30

Новинка

ВАЖНО

ИГРА 18+

pack

RePack

MK11
pack

Легкие деньги

RePack

jed

RePack

fifa19

RePack

RDR2

RePack

NEED FOR SPEED™ PAYBACK

4 сезон

9 сезон

Бесстыжие 9 сезон

Все сериалы

все сериалы на PB.wtf

RePack

FAR CRY 5
  
Magnet ссылка

Разборки в стиле Кунг-фу / Kung Fu Hustle (Стивен Чоу) [2004 г., Боевик, Фэнтези, Комедия, Криминал., BDRip, Полное Дублирование (лицензия)] pb.wtf

Разборки в стиле Кунг-фу через торрент pb.wtf

Размер: 2.18 GB | Добавлен: 8 лет 10 мес. назад | Торрент скачан:129 раз
Скачать  

06-06-2012 13:12 Разборки в стиле Кунг-фу Скачать торрент  

Разборки в стиле Кунг-фу / Kung Fu Hustle

Год выпуска: 2004

Страна: Гонконг, Китай.
Жанр: Боевик, Фэнтези, Комедия, Криминал.
Продолжительность: 01:39:25
Перевод: Полное Дублирование (Лицензия)

Режиссер: Стивен Чоу
Продюссер: Билл Борден, Wellson Chin, Стивен Чоу, По Чу Чуй, Рита Фанг, Дэвид Хуанг, Джеффри Лау, Zhonglei Wang, Конни Вонг, Хай Чэн Жао.
Сценарий: Стивен Чоу, Хин Хуо, Чан Мэн Кеунг, Кан-Чунг Цан.

Бюджет: 20 000 000$
Премьера в мире: 14.09.2004.



В ролях: Стивен Чоу, Хьяоган Фенг, Ва Юэнь, Жи Хуа Донг, Квок-Куен Чан, Лам Чи Чунг, Сю-Люн Люн, Qiu Yuen, Кари мэн Тинь, Кенг Кси Джиа, Hak On Fung, Шенг Йи Хуанг, Сует Лам, Cheung-Yan Yuen, Чи Чи Линг, Ибай Чжан, Си Лу Рен, Ксяо Ланг Динг, Ming Ming Zhang, Оливер Вонг ...

Описание: Действие фильм происходит в Китае 40х годов и разворачивается вокруг неудачливого гангстера, который мечтает стать членов легендарной группировки «Топоры». В то же время лидер группировки начинает терроризировать один из районов, местные жители которого оказываются не так просты и оказывают ему достойный отпор в разгорающейся войне. Все это приправлено юмором, знакомым нам еще со времен «Убойного Футбола».

Качество: BDRip
Формат: AVI
Видео кодек: XviD
Аудио кодек: AC3
Видео: 720x304 (2.37:1), 23.976 fps, XviD MPEG-4 ~1858 kbps avg, 0.35 bit/pixel
Аудио#1: 48 kHz, AC3 Dolby Digital, 3/2 (L,C,R,l,r) + LFE ch, ~448 kbps Профессиональный (полное дублирование)
Аудио#2: 48 kHz, AC3 Dolby Digital, 3/2 (L,C,R,l,r) + LFE ch, ~448 kbps Профессиональный (многоголосый, закадровый)
Аудио#3: 48 kHz, AC3 Dolby Digital, 3/2 (L,C,R,l,r) + LFE ch, ~384 kbps Профессиональный (многоголосый, закадровый)
Субтитры: Отсутствуют

Полное имя : D:\razborki_v_stile_kung_fu.avi
Формат : AVI
Формат/Информация : Audio Video Interleave
Профиль формата : OpenDML
Размер файла : 2,18 Гбайт
Продолжительность : 1 ч. 39 м.
Общий поток : 3146 Кбит/сек
Название фильма : Разборки в стиле Кунг-фу / Kung Fu Hustle / Kung fu (2004) BDRip
Режиссёр : yaroslaigor
Жанр : фэнтези, боевик, комедия
Программа кодирования : VirtualDubMod 1.5.10.2 (build 2540/release)
Правообладатель : http://hqclub.net/
Примечание : 25.04.2012

Видео
Идентификатор : 0
Формат : MPEG-4 Visual
Профиль формата : Advanced Simple@L5
Параметр BVOP формата : 1
Параметр QPel формата : Нет
Параметр GMC формата : Без точки перехода
Параметр матрицы формата : Выборочная
Идентификатор кодека : XVID
Идентификатор кодека/Подсказка : XviD
Продолжительность : 1 ч. 39 м.
Битрейт : 1842 Кбит/сек
Ширина : 720 пикселей
Высота : 304 пикселя
Соотношение сторон : 2,35:1
Частота кадров : 23,976 кадра/сек
Цветовое пространство : YUV
Субдискретизация насыщенности : 4:2:0
Битовая глубина : 8 бит
Тип развёртки : Прогрессивная
Метод сжатия : С потерями
Бит/(Пиксели*Кадры) : 0.351
Размер потока : 1,28 Гбайт (59%)
Библиотека кодирования : XviD 72

Аудио #1
Идентификатор : 1
Формат : AC-3
Формат/Информация : Audio Coding 3
Расширение режима : CM (complete main)
Параметр Endianness формата : Big
Идентификатор кодека : 2000
Продолжительность : 1 ч. 39 м.
Вид битрейта : Постоянный
Битрейт : 448 Кбит/сек
Каналы : 6 каналов
Расположение каналов : Front: L C R, Side: L R, LFE
Частота : 48,0 КГц
Битовая глубина : 16 бит
Метод сжатия : С потерями
Размер потока : 319 Мбайт (14%)
Выравнивание : Разделение по промежуткам
Продолжительность промежутка : 42 мс. (1,00 видеокадр)
Время предзагрузки промежутка : 500 мс.

Аудио #2
Идентификатор : 2
Формат : AC-3
Формат/Информация : Audio Coding 3
Расширение режима : CM (complete main)
Параметр Endianness формата : Big
Идентификатор кодека : 2000
Продолжительность : 1 ч. 39 м.
Вид битрейта : Постоянный
Битрейт : 448 Кбит/сек
Каналы : 6 каналов
Расположение каналов : Front: L C R, Side: L R, LFE
Частота : 48,0 КГц
Битовая глубина : 16 бит
Метод сжатия : С потерями
Размер потока : 319 Мбайт (14%)
Выравнивание : Разделение по промежуткам
Продолжительность промежутка : 42 мс. (1,00 видеокадр)
Время предзагрузки промежутка : 500 мс.

Аудио #3
Идентификатор : 3
Формат : AC-3
Формат/Информация : Audio Coding 3
Расширение режима : CM (complete main)
Параметр Endianness формата : Big
Идентификатор кодека : 2000
Продолжительность : 1 ч. 39 м.
Вид битрейта : Постоянный
Битрейт : 384 Кбит/сек
Каналы : 6 каналов
Расположение каналов : Front: L C R, Side: L R, LFE
Частота : 48,0 КГц
Битовая глубина : 16 бит
Метод сжатия : С потерями
Размер потока : 273 Мбайт (12%)
Выравнивание : Разделение по промежуткам
Продолжительность промежутка : 42 мс. (1,00 видеокадр)
Время предзагрузки промежутка : 500 мс.

pb.wtf



Скачать Разборки в стиле Кунг-фу через торрент http://storage9.static.itmages.ru/i/12/0501/h_1335897383_3842830_08f6ccf030.png Скачать фильм Разборки в стиле Кунг-фу через торрент бесплантно в хорошем качестве Описание: Действие фильм происходит в Китае 40х годов и разворачивается вокруг неудачливого гангстера, который мечтает стать членов ... 10 10 7
Info! Золотая раздача, скачанное не засчитывается.
Торрент: Зарегистрирован [2012-06-06 13:12] · скачан: 129 раз
Статус: √ проверено
Размер: 2.18 GB
Как cкачать? Как скачать Разборки в стиле Кунг-фу через торрент | UTorrent

% Раздел Тема Автор DL S | L
Фильмы (WEB-DL 720p, 1080p) [ 8.55 GB ] Разборки в стиле кунг-фу / Kung Fu Hustle [2004 каратэ HDTV лицензия] _Tpek_ Скачать
1 | 0
Фильмы 2001-2005 [ 1.35 GB ] Разборки в стиле Кунг-фу / Kung Fu Hustle [2004 DVDRip] Andruuha Скачать
1 | 0


Последний раз редактировалось: akcent (2012-06-10 16:55), всего редактировалось 2 раз(а)

28-11-2019 20:33  

Отключить всю рекламу на сайте

06-06-2012 13:39 Разборки в стиле Кунг-фу Скачать торрент  

Фильм роскошен! Автору спс!
Подскажите еще фильмы в этом стиле.pb.wtf



06-06-2012 13:50 Разборки в стиле Кунг-фу Скачать торрент  

ну могу еще скинуть кулак легенды. (джет ли.) качество HD. надо?pb.wtf



06-06-2012 13:50 Разборки в стиле Кунг-фу Скачать торрент  

Не, спс, мне хватает названия! Пойду качну. Обожаю фильмы с кунгфу, сдобренные хорошим юмором. Джеки Чан тут явно рулит.pb.wtf



06-06-2012 14:32 Разборки в стиле Кунг-фу Скачать торрент  

Bart1987 писал(а):

Джеки Чан тут явно рулит.

Тут его нетpb.wtf



06-06-2012 14:38 Разборки в стиле Кунг-фу Скачать торрент  

akcent7 писал(а):

ну могу еще скинуть кулак легенды. (джет ли.) качество HD. надо?

Давай заливай!pb.wtf



06-06-2012 15:03 Разборки в стиле Кунг-фу Скачать торрент  

без проблемpb.wtf



07-06-2012 06:40 Разборки в стиле Кунг-фу Скачать торрент  

XLASER
Я не про данную раздачу, а вообще про подвид кино.pb.wtf



30-01-2015 08:10 Разборки в стиле Кунг-фу Скачать торрент  

дайте скорости плииииззззз !!!!pb.wtf



    Дорогой пользователь! Огромная просьба, поблагодарите релизера, оцените раздачу и оставьте свои комментарий, если Вы скачали Разборки в стиле Кунг-фу через торрент бесплатно! Внесите свою лепту в развитие PiratBit!
    Комментировать посты могут только пользователи прошедшие не сложную регистрацию
    Показать сообщения:    

    Разборки в стиле Кунг-фу через торрент
    Скачать бесплатно Разборки в стиле Кунг-фу
    Разборки в стиле Кунг-фу скачать торрент
    Разборки в стиле Кунг-фу смотреть онлайн
    Cкачать фильм Разборки в стиле Кунг-фу бесплатно
    Разборки в стиле Кунг-фу скачать торрент в хорошем качестве
    Разборки в стиле Кунг-фу смотреть онлайн бесплатно в хорошем качестве


    Вы не можете начинать темы
    Вы не можете отвечать на сообщения
    Вы не можете редактировать свои сообщения
    Вы не можете удалять свои сообщения
    Вы не можете голосовать в опросах
    Вы не можете прикреплять файлы к сообщениям
    Вы можете скачивать файлы