Мега распродажа FORZA HORIZON 4 ULTIMATE+ВСЕ DLC+ОНЛАЙН всего за 499р. 349 руб. (супер цена). Внимание количество ограничено!!!

Лицензия

30

iTunes

мы

iTunes

1

1 сезон

Чернобыль

1 сезон

Ральф против интернета

MVO

Покемон. Детектив Пикачу

8 сезон

Игра престолов

iTunes

1+1

ИГРА 18+

pack

ВАЖНО

!!Акция!!

Alien_RageХит недели

RePack

Resident Evil 21
pack

RePack

Metro:Exodus

!!Акция!!

Alien_Rage

RePack

fifa19

RePack

Assassins Creed: Odyssey

RePack

NEED FOR SPEED™ PAYBACK

3 сезон

9 сезон

Бесстыжие 9 сезон

Все сериалы

все сериалы на PB.wtf

RePack

FAR CRY 5
Ребята, катастрофически не хватает 2730р. для оплаты серверов за МАЙ (всвязи с блокировками трафик упал в 3 раза), 1-2р., выручайте.
  

Час неизвестен / Hodinu nevíš (Дан Сватек) [2009 г., триллер,, DVDRip, VO] pb.wtf

Час неизвестен через торрент pb.wtf

Размер: 1.5 GB | Добавлен: 7 лет назад | Торрент скачан:34 раза
Скачать  

07-06-2012 09:41 Час неизвестен Скачать торрент  

Час неизвестен / Hodinu nevíš



Год выпуска: 2009
Страна: Чехия
Жанр: триллер,
Продолжительность: 01ч 35 мин
Перевод: Любительский (одноголосый)

Режиссер: Дан Сватек
Продюссер: Marek Mackovic, Дан Сватек, Лукас Каплан
Сценарий: Дан Сватек, Miroslav Skacani

Бюджет: CZK 18 500 000
Премьера в мире: 27 августа 2009,



В ролях: Ян Власак Мирослав Таборски Власта Сваткова Марко Игонда Иван Франек Ивета Иржичкова Вацлав Ирачек Зузана Крёнерова Дэниэл Маргулис Станислав Зиндулка ...


В основу фильма легла история самого известного чешского серийного убийцы XXI века, который получил прозвище «Гепариновый убийца»… Его одноклассники уже давно поступили в ВУЗы, а он сдает вступительные экзамены в пятый раз. Гинек Миханек мечтает стать врачом. Он хочет помогать людям, у него есть талант. Но на медицинский факультет его снова не принимают, и Гинек идет работать в больницу. Даже медсестры удивляются: юноша готов заниматься самой грязной работой, быть простым санитаром. С первого дня своей работы, Гинек сталкивается с «настоящей» больницей: грязь, хамство докторов, врачебные ошибки. А красивая девушка — медсестра, с которой у Гинека начался роман, уходит от него к другому. Шаг за шагом, день за днем, и Гинек осознает: В нем живет убийца! Но даже когда врачи понимают, что их санитар умышленно убивает пациентов, они не спешат начать расследование или сообщить в полицию. Потому, что если возникнет скандал, то многие из них лишатся своих постов.


Качество: DVDRip
Формат: AVI
Видео кодек: XviD
Аудио кодек: MP3 /AC3
Видео: 1590 Кбит/сек,688*288(2.40:1),в 25.000 кадр/сек,MPEG-4 Visual(XviD)
Аудио#1: 192 Кбит/сек,44.1 КГц,2 канал(ов),MPEG Audio (MP3 )
Аудио#2: 448 Кбит/сек,48.0 КГц,16 бит, 6 канал(ов),АС-3





Полное имя : D:\FILM\Triller\Chas.neizvesten.Hodinu nevíš.2009.L1.DVDRip.avi
Формат : AVI
Формат/Информация : Audio Video Interleave
Размер файла : 1,50 Гбайт
Продолжительность : 1 ч. 35 м.
Общий поток : 2244 Кбит/сек
Программа кодирования : VirtualDubMod 1.5.10.2 (build 2540/release)
Библиотека кодирования : VirtualDubMod build 2540/release

Видео
Идентификатор : 0
Формат : MPEG-4 Visual
Профиль формата : Advanced Simple@L5
Параметр BVOP формата : 1
Параметр QPel формата : Нет
Параметр GMC формата : Без точки перехода
Параметр матрицы формата : Default (MPEG)
Режим смешивания : Сжатый битовый поток
Идентификатор кодека : XVID
Идентификатор кодека/Подсказка : XviD
Продолжительность : 1 ч. 35 м.
Битрейт : 1590 Кбит/сек
Ширина : 688 пикселей
Высота : 288 пикселей
Соотношение сторон : 2,40:1
Частота кадров : 25,000 кадров/сек
Цветовое пространство : YUV
Субдискретизация насыщенности : 4:2:0
Битовая глубина : 8 бит
Тип развёртки : Прогрессивная
Метод сжатия : С потерями
Бит/(Пиксели*Кадры) : 0.321
Размер потока : 1,06 Гбайт (71%)
Библиотека кодирования : XviD 1.2.0.dev47 (UTC 2006-11-01)

Аудио #1
Идентификатор : 1
Формат : MPEG Audio
Версия формата : Version 1
Профиль формата : Layer 3
Режим : Joint stereo
Расширение режима : MS Stereo
Идентификатор кодека : 55
Идентификатор кодека/Подсказка : MP3
Продолжительность : 1 ч. 35 м.
Вид битрейта : Постоянный
Битрейт : 192 Кбит/сек
Каналы : 2 канала
Частота : 44,1 КГц
Метод сжатия : С потерями
Размер потока : 131 Мбайт (9%)
Выравнивание : Разделение по промежуткам
Продолжительность промежутка : 40 мс. (1,00 видеокадр)
Время предзагрузки промежутка : 500 мс.

Аудио #2
Идентификатор : 2
Формат : AC-3
Формат/Информация : Audio Coding 3
Расширение режима : CM (complete main)
Параметр Endianness формата : Big
Идентификатор кодека : 2000
Продолжительность : 1 ч. 35 м.
Вид битрейта : Постоянный
Битрейт : 448 Кбит/сек
Каналы : 6 каналов
Расположение каналов : Front: L C R, Side: L R, LFE
Частота : 48,0 КГц
Битовая глубина : 16 бит
Метод сжатия : С потерями
Размер потока : 306 Мбайт (20%)
Выравнивание : Разделение по промежуткам
Продолжительность промежутка : 40 мс. (1,00 видеокадр)
Время предзагрузки промежутка : 500 мс.



pb.wtf



Скачать Час неизвестен через торрент http://i36.fastpic.ru/big/2012/0607/4b/6f2b29275c1ebf1e7ba7c56e1b5c564b.gif Скачать фильм Час неизвестен через торрент бесплантно в хорошем качестве В ролях: Ян Власак Мирослав Таборски Власта Сваткова Марко Игонда Иван Франек Ивета Иржичкова Вацлав Ирачек Зузана Крёнерова Дэниэл ... 4.8 10 4
Info! Золотая раздача, скачанное не засчитывается.
Торрент: Зарегистрирован [2012-06-07 09:41] · скачан: 34 раз
Статус: √ проверено
Размер: 1.5 GB
Как cкачать? Как скачать Час неизвестен через торрент | qTorrent

% Раздел Тема Автор DL S | L
Фильмы 2009 [ 1.5 GB ] Час неизвестен / Hodinu neviš [2009 DVDRip] coc900 Скачать
1 | 0


>> Регистрируемся здесь <<






Отзывы и комментарии о схеме читаем и пишем здесь: ---> Отзывы и комментарии о схеме

Новые благодарочки в телеграм довольных пользователей:
скриншот   скриншот   скриншот   скриншот   скриншот

07-06-2012 11:58 Час неизвестен Скачать торрент  

Спасибо! Трейлер интересный.pb.wtf



    Дорогой пользователь! Огромная просьба, поблагодарите релизера, оцените раздачу и оставьте свои комментарий, если Вы скачали Час неизвестен через торрент бесплатно! Внесите свою лепту в развитие PiratBit!
    Комментировать посты могут только пользователи прошедшие не сложную регистрацию
    Показать сообщения:    

    Час неизвестен через торрент
    Скачать бесплатно Час неизвестен
    Час неизвестен скачать торрент
    Час неизвестен смотреть онлайн
    Cкачать фильм Час неизвестен бесплатно
    Час неизвестен скачать торрент в хорошем качестве
    Час неизвестен смотреть онлайн бесплатно в хорошем качестве


    Вы не можете начинать темы
    Вы не можете отвечать на сообщения
    Вы не можете редактировать свои сообщения
    Вы не можете удалять свои сообщения
    Вы не можете голосовать в опросах
    Вы не можете прикреплять файлы к сообщениям
    Вы можете скачивать файлы