1 сезон

3 сезон

iTunes

1

Line

MVO

iTunes

13

1 сезон

RePack

30

Deluxe

pack

Лицензия

ВАЖНО

ИГРА 18+

pack

RePack

MK11

RePack

jed

RePack

fifa19

RePack

RDR2

RePack

NEED FOR SPEED™ PAYBACK

4 сезон

9 сезон

Бесстыжие 9 сезон

Все сериалы

все сериалы на PB.wtf

RePack

FAR CRY 5

Anonymous, доброй ночи, мы катастрофически не успеваем собрать деньги на оплату серверов, помогите нам пожалуйста 5,10,15р., для нас важна любая помощь . В качестве благодарности мы отключим Вам всю рекламу на сайте (укажите свой ник в строку Ваше имя)!

×
  
Magnet ссылка

Ворон [2012, триллер, детектив, DVD5] R5 pb.wtf

Ворон через торрент pb.wtf

Размер: 4.14 GB | Добавлен: 9 лет 1 мес. назад | Торрент скачан:325 раз
Скачать  

02-06-2012 22:16 Ворон Скачать торрент  


Ворон
Почему не совпадает название фильма и темы

«Серийного убийцу остановит лишь тот, кто вдохновил его на преступление»
Страна: США, Испания, Венгрия
Студия: FilmNation Entertainment, Galavis Film, Intrepid Pictures, Pioneer Pictures, Relativity Media
Жанр: триллер, детектив
Год выпуска: 2012
Мировая премьера: 9 марта 2012
Российская премьера: 12 апреля 2012
Дата выхода DVD: 7 июня 2012
Продолжительность: 01:45:56
Перевод: Профессиональный (дублированный) [Лицензия]
Cубтитры: нет
Режиссер: Джеймс МакТиг / James McTeigue
В ролях: Джон Кьюсак, Люк Эванс, Элис Ив, Брендан Глисон, Пэм Феррис, Брендан Койл, Оливер Джексон-Коэн, Кевин МакНэлли, Дэвид Леджено, Сергей Трифунович
Описание: Рассказ о последних днях жизни Эдгара Аллана По. Знаменитый поэт преследует серийного убийцу, чьи преступления очень похожи на те, что описаны в его произведениях.
Бонусы: нет

Релиз группы:
Качество: DVD5 R5
Формат: DVD-Video
Видео кодек: MPEG2
Аудио кодек: AC3
Видео: PAL 16:9 (720x576(0.477)) MPEG Video, 25,000 кадр/сек, 4949 Кбит/сек
Аудио: Russian (Dolby AC3, 6 ch) 384 Кбит/сек, 48,0 КГц



Title:
Size: 4.14 Gb ( 4 337 560 KBytes ) - DVD-5
Enabled regions: 1, 2, 3, 4, 5, 6, 7, 8

VTS_01 :
Play Length: 01:45:56
Video: PAL 16:9 (720x576) VBR, Auto Pan&Scan
Audio:
Russian (Dolby AC3, 6 ch)

VTS_02 :
Play Length: 00:00:05
Video: PAL 16:9 (720x576) VBR, Auto Pan&Scan

VTS_03 :
Play Length: 00:00:08
Video: PAL 4:3 (720x576) VBR

VTS_04 :
Play Length: 00:00:20
Video: PAL 4:3 (720x576) VBR
Audio:
English (Dolby AC3, 2 ch)

Menu Video:
PAL 4:3 (720x576) VBR
Auto Pan&Scan, Auto Letterboxed
Menu Russian Language Unit :
Root Menu
Chapter (PTT) Menu
Общее
Полное имя : J:\Новинки 2012\Voron.2012.DVD5\VIDEO_TS\VTS_01_3.VOB
Формат : MPEG-PS
Размер файла : 1024 Мбайт
Продолжительность : 26 м.
Режим общего битрейта : Переменный
Общий поток : 5441 Кбит/сек

Видео
Идентификатор : 224 (0xE0)
Формат : MPEG Video
Версия формата : Version 2
Профиль формата : Main@Main
Параметр BVOP формата : Да
Параметр матрицы формата : Выборочная
Параметр GOP формата : M=3, N=15
Продолжительность : 26 м.
Вид битрейта : Переменный
Битрейт : 4949 Кбит/сек
Максимальный битрейт : 8000 Кбит/сек
Ширина : 720 пикселей
Высота : 576 пикселей
Соотношение сторон : 16:9
Частота кадров : 25,000 кадров/сек
Стандарт вещания : PAL
Цветовое пространство : YUV
Субдискретизация насыщенности : 4:2:0
Битовая глубина : 8 бит
Тип развёртки : Чересстрочная
Порядок развёртки : Верхнее поле первое
Метод сжатия : С потерями
Бит/(Пиксели*Кадры) : 0.477
Размер потока : 931 Мбайт (91%)

Аудио
Идентификатор : 189 (0xBD)-128 (0x80)
Формат : AC-3
Формат/Информация : Audio Coding 3
Расширение режима : CM (complete main)
Параметр Endianness формата : Big
Режим смешивания : DVD-Video
Продолжительность : 26 м.
Вид битрейта : Постоянный
Битрейт : 384 Кбит/сек
Каналы : 6 каналов
Расположение каналов : Front: L C R, Side: L R, LFE
Частота : 48,0 КГц
Битовая глубина : 16 бит
Метод сжатия : С потерями
Задержка видео : -592 мс.
Размер потока : 72,3 Мбайт (7%)










pb.wtf



Скачать Ворон через торрент https://pic1.kartinco.top/images/2000/o1mm5ux5hx.png Скачать фильм Ворон [2012, триллер, детектив, DVD5] R5через торрент бесплантно в хорошем качестве Описание: Рассказ о последних днях жизни Эдгара Аллана По. Знаменитый поэт преследует серийного убийцу, чьи преступления очень похожи на ... 10 10 1
Info! Золотая раздача, скачанное не засчитывается.
Торрент: Зарегистрирован [2012-06-07 15:35] · скачан: 325 раз
Статус: √ проверено
Размер: 4.14 GB
Как cкачать? Как скачать Ворон через торрент | UTorrent

% Раздел Тема Автор DL S | L
T R.G. Resident & PiratVoice - Фильмы, Видео [ 1.48 GB ] Пустошь / Wasteland [2013 BDRip-AVC Любительский и Ворон] R.G.Resident schultz Скачать
1 | 0
Зарубежные Мультфильмы (DVD) [ 4.04 GB ] Ворона-проказница / Der kleine Rabe Socke [2012 мультфильм DVD5] R5 voovaz Скачать
1 | 0
Наши фильмы (DVD фильмы) [ 4.54 GB ] Искатели приключений [2012 DVD9] R5 voovaz Скачать
1 | 0
Фильмы (DVD фильмы) [ 5.25 GB ] Ворон / The Raven [2012 Испания Венгрия DVD9] R5 DUB Mr. Freeman Скачать
1 | 0

28-11-2019 20:33  

Отключить всю рекламу на сайте

03-06-2012 06:47 Ворон Скачать торрент  

Фильм должен быть ничо! :good2:pb.wtf



03-06-2012 09:08 Ворон Скачать торрент  

рип сделайтеpb.wtf



03-06-2012 17:09 Ворон Скачать торрент  

Замечательны фильм , спасибо , впечатлило !!!pb.wtf



03-06-2012 17:21 Ворон Скачать торрент  

Замечательны фильм , спасибо , впечатлило !!!
норм качество иль как??pb.wtf



27-06-2012 16:53 Ворон Скачать торрент  

Фильм классpb.wtf



    Дорогой пользователь! Огромная просьба, поблагодарите релизера, оцените раздачу и оставьте свои комментарий, если Вы скачали Ворон через торрент бесплатно! Внесите свою лепту в развитие PiratBit!
    Комментировать посты могут только пользователи прошедшие не сложную регистрацию
    Показать сообщения:    

    Ворон через торрент
    Скачать бесплатно Ворон
    Ворон скачать торрент
    Ворон смотреть онлайн
    Cкачать фильм Ворон бесплатно
    Ворон скачать торрент в хорошем качестве
    Ворон смотреть онлайн бесплатно в хорошем качестве


    Вы не можете начинать темы
    Вы не можете отвечать на сообщения
    Вы не можете редактировать свои сообщения
    Вы не можете удалять свои сообщения
    Вы не можете голосовать в опросах
    Вы не можете прикреплять файлы к сообщениям
    Вы можете скачивать файлы