2 сезон

iTunes

MVO

1

2 сезон

iTunes

iTunes

1 сезон

RePack

30

Новинка

ВАЖНО

ИГРА 18+

pack

RePack

MK11
pack

Легкие деньги

RePack

jed

RePack

fifa19

RePack

RDR2

RePack

NEED FOR SPEED™ PAYBACK

4 сезон

9 сезон

Бесстыжие 9 сезон

Все сериалы

все сериалы на PB.wtf

RePack

FAR CRY 5

Anonymous, доброе утро, мы не успеваем собрать деньги на оплату серверов за декабрь и январь, помогите нам пожалуйста в это трудное время. В качестве благодарности мы отключим Вам всю рекламу на сайте (укажите свой ник в строку Ваше имя)!

×
  
Magnet ссылка

[AndreaNobiliProductions] Karolly Mel (The blonde panther!) [08.06.2012 г., Tranny, Big Cocked, All Sex, SiteRip] pb.wtf

через торрент pb.wtf

Размер: 532 MB | Добавлен: 8 лет 7 мес. назад | Торрент скачан:104 раза
Скачать  

08-06-2012 16:22 Скачать торрент  

[AndreaNobiliProductions.com]
Karolly Mel
The blonde panther!
[08.06.2012 г.]

Год производства: 2012 г.
Жанр: Tranny, Big Cocked, All Sex
Продолжительность: 00:33:50

Студия: AndreaNobiliProductions.com

В ролях: Karolly Mel

Качество видео: SiteRip
Формат видео: MP4
Видео кодек: AVC
Аудио кодек: AAC
Видео: 25.000 fps, 2 088 Kbps, 720x480
Аудио: 128 Kbps, 2 channels, 48.0 KHz

Описание:


The nice and blonde Karolly satisfies her guy with blowjobs,
anal, ass and foot licking .

General
Complete name : The blonde panther.mp4
Format : MPEG-4
Format profile : Base Media
Codec ID : isom
File size : 532 MiB
Duration : 33mn 50s
Overall bit rate mode : Variable
Overall bit rate : 2 199 Kbps
Movie name : sf077_3.mp4
Writing application : Lavf52.108.0

Video
ID : 1
Format : AVC
Format/Info : Advanced Video Codec
Format profile : High@L3.1
Format settings, CABAC : Yes
Format settings, ReFrames : 4 frames
Codec ID : avc1
Codec ID/Info : Advanced Video Coding
Duration : 33mn 50s
Bit rate : 2 088 Kbps
Width : 720 pixels
Height : 480 pixels
Display aspect ratio : 3:2
Frame rate mode : Constant
Frame rate : 25.000 fps
Standard : PAL
Color space : YUV
Chroma subsampling : 4:2:0
Bit depth : 8 bits
Scan type : Progressive
Bits/(Pixel*Frame) : 0.242
Stream size : 505 MiB (95%)

Audio
ID : 2
Format : AAC
Format/Info : Advanced Audio Codec
Format profile : LC
Codec ID : 40
Duration : 33mn 50s
Bit rate mode : Variable
Bit rate : 102 Kbps
Maximum bit rate : 128 Kbps
Channel(s) : 2 channels
Channel positions : Front: L R
Sampling rate : 48.0 KHz
Compression mode : Lossy
Delay relative to video : -4s 4ms
Stream size : 24.7 MiB (5%)
pb.wtf



pack Скачать через торрент http://i27.fastpic.ru/big/2012/0330/af/1845a3bc48a38a36df131da116e9ceaf.jpg Скачать фильм [AndreaNobiliProductions] Karolly Mel через торрент бесплантно в хорошем качестве Описание: The nice and blonde Karolly satisfies her guy with blowjobs,anal, ass and foot licking . ... 3.5 10 6
Info! Золотая раздача, скачанное не засчитывается.
Торрент: Зарегистрирован [2012-06-08 16:22] · скачан: 104 раз
Статус: √ проверено
Размер: 532 MB
Как cкачать? Как скачать через торрент | UTorrent

28-11-2019 20:33  

Отключить всю рекламу на сайте

08-06-2012 19:14 Скачать торрент  

rixt писал(а):

[AndreaNobiliProductions.com] Karolly Mel (The blonde panther!) [08.06.2012 г., Tranny, Big Cocked, All Sex, SiteRip]

pb.wtf



pack

12-06-2012 22:27 Скачать торрент  

Ха! Ха! Посмотри вокруг себя, не е...ёт ли кто тебя.
Интересно, как они друг друга находят.pb.wtf



pack
    Дорогой пользователь! Огромная просьба, поблагодарите релизера, оцените раздачу и оставьте свои комментарий, если Вы скачали через торрент бесплатно! Внесите свою лепту в развитие PiratBit!
    Комментировать посты могут только пользователи прошедшие не сложную регистрацию
    Показать сообщения:    

    через торрент
    Скачать бесплатно
    скачать торрент
    смотреть онлайн
    Cкачать фильм бесплатно
    скачать торрент в хорошем качестве
    смотреть онлайн бесплатно в хорошем качестве


    Вы не можете начинать темы
    Вы не можете отвечать на сообщения
    Вы не можете редактировать свои сообщения
    Вы не можете удалять свои сообщения
    Вы не можете голосовать в опросах
    Вы не можете прикреплять файлы к сообщениям
    Вы можете скачивать файлы