Мега распродажа FORZA HORIZON 4 ULTIMATE+ВСЕ DLC+ОНЛАЙН всего за 499р. 349 руб. (супер цена). Внимание количество ограничено!!!

Лицензия

30

iTunes

мы

iTunes

1

1 сезон

Чернобыль

1 сезон

Ральф против интернета

MVO

Покемон. Детектив Пикачу

8 сезон

Игра престолов

iTunes

1+1

ИГРА 18+

pack

ВАЖНО

!!Акция!!

Alien_RageХит недели

RePack

Resident Evil 21
pack

RePack

Metro:Exodus

!!Акция!!

Alien_Rage

RePack

fifa19

RePack

Assassins Creed: Odyssey

RePack

NEED FOR SPEED™ PAYBACK

3 сезон

9 сезон

Бесстыжие 9 сезон

Все сериалы

все сериалы на PB.wtf

RePack

FAR CRY 5
Ребята, катастрофически не хватает 2730р. для оплаты серверов за МАЙ (всвязи с блокировками трафик упал в 3 раза), 1-2р., выручайте.
  

Южная зона / Zona sur (Хуан Карлос Валдивия) [2009 г., драма, HDTVRip, Профессиональный (многоголосый)] pb.wtf

Южная зона через торрент pb.wtf

Размер: 1.46 GB | Добавлен: 7 лет назад | Торрент скачан:8 раз
Скачать  

09-06-2012 11:00 Южная зона Скачать торрент  

Южная зона / Zona sur

Год выпуска: 2009
Страна: Боливия
Жанр: драма
Продолжительность: 01:33:45
Перевод: Профессиональный (многоголосый)
Субтитры: Отсутствуют

Режиссер: Хуан Карлос Валдивия
Продюссер: Габриела Маире
Сценарий: Хуан Карлос Валдивия

Премьера в мире: 20 августа 2009

IMDB 6.60 (153)


В ролях: Нинон дель Кастилло, Паскуаль Лоайза, Николас Фернандез, Мриана Варгас, Луиза Де Уриосте, Гленда Родригез, Химена Альварез

Описание: Укрытый в долине Ла-Паса элитный пригород Южный квартал долгие годы был местом проживания экономической и политической элиты Боливии. Кажется, что здесь, в замке с черепичной крышей, царит покой, достаток и уют семейного матриархата. Но иллюзия спокойной семейной жизни вот-вот рухнет — где-то, совсем недалеко, уже бушуют социальные бури, и звук лопнувшей струны раздается в этом сонном раю.

Качество: HDTVRip
Формат: AVI
Видео кодек: XviD
Аудио кодек: MP3
Видео: 720x400 (1.80:1), 25 fps, XviD build 50 ~1810 kbps avg, 0.25 bit/pixel
Аудио#1: 48 kHz, MPEG Layer 3, 2 ch, ~192.00 kbps avg


Общее
Полное имя : F:\Закачки\Yzjnaja.Zona.2009.HDTVRip.avi
Формат : AVI
Формат/Информация : Audio Video Interleave
Размер файла : 1,46 Гбайт
Продолжительность : 1 ч. 43 м.
Общий поток : 2012 Кбит/сек
Программа кодирования : VirtualDubMod 1.5.10.3 | www.virtualdub-fr.org || (build 2550/release)
Библиотека кодирования : VirtualDubMod build 2550/release

Видео
Идентификатор : 0
Формат : MPEG-4 Visual
Профиль формата : Advanced Simple@L5
Параметр BVOP формата : 1
Параметр QPel формата : Нет
Параметр GMC формата : Без точки перехода
Параметр матрицы формата : Выборочная
Идентификатор кодека : DX50
Идентификатор кодека/Подсказка : DivX 5
Продолжительность : 1 ч. 43 м.
Битрейт : 1811 Кбит/сек
Ширина : 720 пикселей
Высота : 400 пикселей
Соотношение сторон : 16:9
Частота кадров : 25,000 кадров/сек
Цветовое пространство : YUV
Субдискретизация насыщенности : 4:2:0
Битовая глубина : 8 бит
Тип развёртки : Прогрессивная
Метод сжатия : С потерями
Бит/(Пиксели*Кадры) : 0.251
Размер потока : 1,31 Гбайт (90%)
Библиотека кодирования : XviD 1.2.1 (UTC 2008-12-04)

Аудио
Идентификатор : 1
Формат : MPEG Audio
Версия формата : Version 1
Профиль формата : Layer 3
Идентификатор кодека : 55
Идентификатор кодека/Подсказка : MP3
Продолжительность : 1 ч. 43 м.
Вид битрейта : Постоянный
Битрейт : 192 Кбит/сек
Каналы : 2 канала
Частота : 48,0 КГц
Метод сжатия : С потерями
Размер потока : 143 Мбайт (10%)
Выравнивание : Соединение по промежуткам
Продолжительность промежутка : 40 мс. (1,00 видеокадр)
Время предзагрузки промежутка : 504 мс.
Библиотека кодирования : LAME3.99
Настройки программы : -m s -V 4 -q 2 -lowpass 18.6 -b 192

pb.wtf



Скачать Южная зона через торрент http://i26.fastpic.ru/big/2012/0609/ca/53ca0612ac214e5618fd9d0df27fb7ca.jpg Скачать фильм Южная зона через торрент бесплантно в хорошем качестве Описание: Укрытый в долине Ла-Паса элитный пригород Южный квартал долгие годы был местом проживания экономической и политической элиты ... 5 10 1
Info! Золотая раздача, скачанное не засчитывается.
Торрент: Зарегистрирован [2012-06-09 11:00] · скачан: 8 раз
Статус: √ проверено
Размер: 1.46 GB
Как cкачать? Как скачать Южная зона через торрент | qTorrent


>> Регистрируемся здесь <<






Отзывы и комментарии о схеме читаем и пишем здесь: ---> Отзывы и комментарии о схеме

Новые благодарочки в телеграм довольных пользователей:
скриншот   скриншот   скриншот   скриншот   скриншот
    Дорогой пользователь! Огромная просьба, поблагодарите релизера, оцените раздачу и оставьте свои комментарий, если Вы скачали Южная зона через торрент бесплатно! Внесите свою лепту в развитие PiratBit!
    Комментировать посты могут только пользователи прошедшие не сложную регистрацию
    Показать сообщения:    

    Южная зона через торрент
    Скачать бесплатно Южная зона
    Южная зона скачать торрент
    Южная зона смотреть онлайн
    Cкачать фильм Южная зона бесплатно
    Южная зона скачать торрент в хорошем качестве
    Южная зона смотреть онлайн бесплатно в хорошем качестве


    Вы не можете начинать темы
    Вы не можете отвечать на сообщения
    Вы не можете редактировать свои сообщения
    Вы не можете удалять свои сообщения
    Вы не можете голосовать в опросах
    Вы не можете прикреплять файлы к сообщениям
    Вы можете скачивать файлы