2 сезон

iTunes

MVO

1

2 сезон

iTunes

iTunes

1 сезон

RePack

30

Новинка

ВАЖНО

ИГРА 18+

pack

RePack

MK11
pack

Легкие деньги

RePack

jed

RePack

fifa19

RePack

RDR2

RePack

NEED FOR SPEED™ PAYBACK

4 сезон

9 сезон

Бесстыжие 9 сезон

Все сериалы

все сериалы на PB.wtf

RePack

FAR CRY 5

Anonymous, доброй ночи, мы не успеваем собрать деньги на оплату серверов за декабрь и январь, помогите нам пожалуйста в это трудное время. В качестве благодарности мы отключим Вам всю рекламу на сайте (укажите свой ник в строку Ваше имя)!

×
  
Magnet ссылка

[ShemaleStrokers] TS Khloe Hart (Wants You To Focus Your Attention On Her T-Clitty!) [08.06.2012 г., Shemale, Solo, Masturbation, SiteRip] pb.wtf

через торрент pb.wtf

Размер: 419 MB | Добавлен: 8 лет 7 мес. назад | Торрент скачан:46 раз
Скачать  

09-06-2012 22:41 Скачать торрент  

[ShemaleStrokers.com]
TS Khloe Hart
Wants You To Focus
Your Attention On Her T-Clitty!
[08.06.2012 г.]

Год производства: 2012 г.
Жанр: Shemale, Solo, Masturbation
Продолжительность: 00:34:43

Студия: ShemaleStrokers.com
В ролях: TS Khloe Hart

Качество видео: SiteRip
Формат видео: WMV
Видео кодек: Windows Media
Аудио кодек: WMA
Видео: 29.970 fps, 1 500 Kbps, 960x540
Аудио: 128 kbps, 44 kHz, stereo CBR

Описание:

Hey, I need you to come over now. I have something really important we need to discuss.
We have been going steady for about a year now and for the most part things are going great!
The problem is I feel like my lady cock is being neglected.
When I talk to my other t-girl friends they say their boyfriends love it.
So why don't we start with all the things you enjoy and then can spend some time with you focusing on my t-clitty.
Oh, that feels so good! Now use your tongue to get me all clean.
General
Complete name : ts-khloehart6-scene.wmv
Format : Windows Media
File size : 419 MiB
Duration : 34mn 43s
Overall bit rate : 1 689 Kbps
Maximum Overall bit rate : 1 652 Kbps
Encoded date : UTC 2012-06-07 02:18:54.000

Video
ID : 1
Format : VC-1
Format profile : Main
Codec ID : WMV3
Codec ID/Info : Windows Media Video 9
Codec ID/Hint : WMV3
Description of the codec : Windows Media Video 9 - 2-pass VBR
Duration : 34mn 43s
Bit rate : 1 500 Kbps
Width : 960 pixels
Height : 540 pixels
Display aspect ratio : 16:9
Frame rate : 29.970 fps
Bit depth : 8 bits
Scan type : Progressive
Compression mode : Lossy
Bits/(Pixel*Frame) : 0.097
Stream size : 373 MiB (89%)

Audio
ID : 2
Format : WMA
Format version : Version 2
Codec ID : 161
Codec ID/Info : Windows Media Audio
Description of the codec : Windows Media Audio 9 - 128 kbps, 44 kHz, stereo CBR
Duration : 34mn 43s
Bit rate : 128 Kbps
Channel(s) : 2 channels
Sampling rate : 44.1 KHz
Bit depth : 16 bits
Stream size : 31.8 MiB (8%)
pb.wtf



pack Скачать через торрент http://i36.fastpic.ru/big/2012/0517/3c/e07d4468f5749fdceeaab97e9d730d3c.jpg Скачать фильм [ShemaleStrokers] TS Khloe Hart через торрент бесплантно в хорошем качестве Описание: Hey, I need you to come over now. I have something really important we need to discuss.We have been going steady for about a ... 6 10 1
Info! Золотая раздача, скачанное не засчитывается.
Торрент: Зарегистрирован [2012-06-09 22:41] · скачан: 46 раз
Статус: √ проверено
Размер: 419 MB
Как cкачать? Как скачать через торрент | UTorrent

28-11-2019 20:33  

Отключить всю рекламу на сайте

    Дорогой пользователь! Огромная просьба, поблагодарите релизера, оцените раздачу и оставьте свои комментарий, если Вы скачали через торрент бесплатно! Внесите свою лепту в развитие PiratBit!
    Комментировать посты могут только пользователи прошедшие не сложную регистрацию
    Показать сообщения:    

    через торрент
    Скачать бесплатно
    скачать торрент
    смотреть онлайн
    Cкачать фильм бесплатно
    скачать торрент в хорошем качестве
    смотреть онлайн бесплатно в хорошем качестве


    Вы не можете начинать темы
    Вы не можете отвечать на сообщения
    Вы не можете редактировать свои сообщения
    Вы не можете удалять свои сообщения
    Вы не можете голосовать в опросах
    Вы не можете прикреплять файлы к сообщениям
    Вы можете скачивать файлы