MEGA SALE -50% FORZA HORIZON 4 ULTIMATE+ВСЕ DLC+ОНЛАЙН всего за 599р. 299 руб. (супер цена). Внимание количество ограничено!!!

iTunes

1+1

iTunes

мы

iTunes

1

iTunes

Чернобыль

iTunes

Ральф против интернета

Лицензия

ПШазам

Лицензия

Игра престолов

Лицензия

30
pack

ВАЖНО

!!Акция!!

Alien_RageХит недели

RePack

Resident Evil 21

ИГРА 18+

pack

RePack

Metro:Exodus

!!Акция!!

Alien_Rage

RePack

fifa19

RePack

Assassins Creed: Odyssey

RePack

NEED FOR SPEED™ PAYBACK

3 сезон

9 сезон

Бесстыжие 9 сезон

Все сериалы

все сериалы на PB.wtf

RePack

FAR CRY 5
Ребята, катастрофически не хватает 7730р. для оплаты серверов за АВГУСТ (всвязи с блокировками трафик упал в 3 раза), 1-2р., выручайте.
  

Спящий лагерь 3: Безлюдная территория / Sleepaway Camp III: Teenage Wasteland (Майкл А. Симпсон) [1989 г., ужасы, комедия, HDTVRip, Профессиональный (многоголосый)] pb.wtf

Спящий лагерь 3: Безлюдная территория через торрент pb.wtf

Размер: 4.44 GB | Добавлен: 7 лет 3 мес. назад | Торрент скачан:10 раз
Скачать  

11-06-2012 17:38 Спящий лагерь 3: Безлюдная территория Скачать торрент  

Спящий лагерь 3: Безлюдная территория / Sleepaway Camp III: Teenage Wasteland

Год выпуска: 1989
Страна: США
Жанр: ужасы, комедия
Продолжительность: 01:19:22
Перевод:Профессиональный (многоголосый)
Субтитры: Отсутствуют

Режиссер: Майкл А. Симпсон
Продюссер: Джерри Силва, Майкл А. Симпсон, Роберт Ф. Филлипс

Премьера в мире: 5 февраля 1989

IMDB 4.90 (2 497)


В ролях: Памела Спрингстин, Трэйси Гриффит, Майкл Дж. Поллард, Марк Оливер, Хэйнс Брук, Сандра Дорси, Дэрил Вилчер, Ким Уолл, Кайл Холман, Клифф Брэнд

Описание: Летний лагерь Роллинг Хиллз переименовали, потому что у жителей всей округи возникали только кошмарные ассоциации при упоминании этого названия. Теперь лагерь получил вывеску «Новые горизонты».
Анджела Бэйкер, убивавшая подростков в предыдущих двух частях фильма тоже «переименовалась«: теперь ее зовут Мария Накастро. Потому что именно так звали девочку, которую Анджела убила, чтобы отправиться в лагерь «Новые горизонты», где ее кровавая натура сможет развернуться во всю…

Качество: HDTVRip
Формат: MKV
Видео кодек: H.26x
Аудио кодек: AC3
Видео: AVC (х264),1280x720 (1.778), at 23.976 fps, MPEG4, ~7 500 kbps avg
Аудио#1: Русский: 48 kHz, AC-3, 2 ch, ~192.00 kbps avg
Аудио#2: Русский: 48 kHz, AC-3, 2 ch, ~192.00 kbps avg, Авторский (одногоголосый) | [Визгунов]
Аудио#3: Английский: 48 kHz, AC-3, 2 ch, ~192.00 kbps avg






Общее
Уникальный идентификатор : 192754240514549978202716400779642093327 (0x91031DCA851B1348ACAEA1594C893F0F)
Полное имя : F:\Закачки\Spjshiy.Lagerj.III.1989.HDTVRip.mkv
Формат : Matroska
Версия формата : Version 2
Размер файла : 4,44 Гбайт
Продолжительность : 1 ч. 19 м.
Общий поток : 8004 Кбит/сек
Дата кодирования : UTC 2011-03-04 17:01:06
Программа кодирования : mkvmerge v2.9.8 ('C'est le bon') built on Aug 13 2009 12:49:06
Библиотека кодирования : libebml v0.7.7 + libmatroska v0.8.1

Видео
Идентификатор : 1
Формат : AVC
Формат/Информация : Advanced Video Codec
Профиль формата : High@L4.1
Параметр CABAC формата : Да
Параметр ReFrames формата : 5 кадров
Идентификатор кодека : V_MPEG4/ISO/AVC
Продолжительность : 1 ч. 19 м.
Битрейт : 7500 Кбит/сек
Ширина : 1280 пикселей
Высота : 720 пикселей
Соотношение сторон : 16:9
Частота кадров : 23,976 кадра/сек
Цветовое пространство : YUV
Субдискретизация насыщенности : 4:2:0
Битовая глубина : 8 бит
Тип развёртки : Прогрессивная
Бит/(Пиксели*Кадры) : 0.339
Размер потока : 4,07 Гбайт (92%)
Библиотека кодирования : x264 core 112 r1867 22bfd31
Настройки программы : cabac=1 / ref=5 / deblock=1:0:0 / analyse=0x3:0x113 / me=umh / subme=7 / psy=1 / psy_rd=1.00:0.00 / mixed_ref=1 / me_range=32 / chroma_me=1 / trellis=1 / 8x8dct=1 / cqm=0 / deadzone=21,11 / fast_pskip=0 / chroma_qp_offset=-2 / threads=3 / sliced_threads=0 / nr=0 / decimate=1 / interlaced=0 / constrained_intra=0 / bframes=3 / b_pyramid=2 / b_adapt=2 / b_bias=0 / direct=1 / weightb=1 / open_gop=0 / weightp=2 / keyint=250 / keyint_min=23 / scenecut=40 / intra_refresh=0 / rc_lookahead=50 / rc=2pass / mbtree=1 / bitrate=7500 / ratetol=1.0 / qcomp=0.60 / qpmin=0 / qpmax=51 / qpstep=4 / cplxblur=20.0 / qblur=0.5 / vbv_maxrate=50000 / vbv_bufsize=50000 / nal_hrd=none / ip_ratio=1.40 / aq=1:1.00
Язык : English
Default : Нет
Forced : Нет

Аудио #1
Идентификатор : 2
Формат : AC-3
Формат/Информация : Audio Coding 3
Расширение режима : CM (complete main)
Параметр Endianness формата : Big
Идентификатор кодека : A_AC3
Продолжительность : 1 ч. 19 м.
Вид битрейта : Постоянный
Битрейт : 192 Кбит/сек
Каналы : 2 канала
Расположение каналов : Front: L R
Частота : 48,0 КГц
Битовая глубина : 16 бит
Метод сжатия : С потерями
Размер потока : 109 Мбайт (2%)
Заголовок : MVO AC3 2.0 192 kbps
Язык : Russian
Default : Да
Forced : Нет

Аудио #2
Идентификатор : 3
Формат : AC-3
Формат/Информация : Audio Coding 3
Расширение режима : CM (complete main)
Параметр Endianness формата : Big
Идентификатор кодека : A_AC3
Продолжительность : 1 ч. 19 м.
Вид битрейта : Постоянный
Битрейт : 128 Кбит/сек
Каналы : 1 канал
Расположение каналов : Front: C
Частота : 48,0 КГц
Битовая глубина : 16 бит
Метод сжатия : С потерями
Размер потока : 72,7 Мбайт (2%)
Заголовок : Vizgunov AC3 1.0 128 kbps
Язык : Russian
Default : Нет
Forced : Нет

Аудио #3
Идентификатор : 4
Формат : AC-3
Формат/Информация : Audio Coding 3
Расширение режима : CM (complete main)
Параметр Endianness формата : Big
Идентификатор кодека : A_AC3
Продолжительность : 1 ч. 19 м.
Вид битрейта : Постоянный
Битрейт : 192 Кбит/сек
Каналы : 2 канала
Расположение каналов : Front: L R
Частота : 48,0 КГц
Битовая глубина : 16 бит
Метод сжатия : С потерями
Размер потока : 109 Мбайт (2%)
Заголовок : Original AC3 2.0 192 kbps
Язык : English
Default : Нет
Forced : Нет

pb.wtf



Скачать Спящий лагерь 3: Безлюдная территория через торрент http://i26.fastpic.ru/big/2012/0611/c8/d428561eb5bf61b0fb59cf09dfcb34c8.jpg Скачать фильм Спящий лагерь 3: Безлюдная территория через торрент бесплантно в хорошем качестве Описание: Летний лагерь Роллинг Хиллз переименовали, потому что у жителей всей округи возникали только кошмарные ассоциации при упоминании ... 10 10 1
Info! Золотая раздача, скачанное не засчитывается.
Торрент: Зарегистрирован [2012-06-11 17:38] · скачан: 10 раз
Статус: √ проверено
Размер: 4.44 GB
Как cкачать? Как скачать Спящий лагерь 3: Безлюдная территория через торрент | qTorrent


>> Регистрируемся здесь <<






Отзывы и комментарии о схеме читаем и пишем здесь: ---> Отзывы и комментарии о схеме

Новые благодарочки в телеграм довольных пользователей:
скриншот   скриншот   скриншот   скриншот   скриншот
    Дорогой пользователь! Огромная просьба, поблагодарите релизера, оцените раздачу и оставьте свои комментарий, если Вы скачали Спящий лагерь 3: Безлюдная территория через торрент бесплатно! Внесите свою лепту в развитие PiratBit!
    Комментировать посты могут только пользователи прошедшие не сложную регистрацию
    Показать сообщения:    

    Спящий лагерь 3: Безлюдная территория через торрент
    Скачать бесплатно Спящий лагерь 3: Безлюдная территория
    Спящий лагерь 3: Безлюдная территория скачать торрент
    Спящий лагерь 3: Безлюдная территория смотреть онлайн
    Cкачать фильм Спящий лагерь 3: Безлюдная территория бесплатно
    Спящий лагерь 3: Безлюдная территория скачать торрент в хорошем качестве
    Спящий лагерь 3: Безлюдная территория смотреть онлайн бесплатно в хорошем качестве


    Вы не можете начинать темы
    Вы не можете отвечать на сообщения
    Вы не можете редактировать свои сообщения
    Вы не можете удалять свои сообщения
    Вы не можете голосовать в опросах
    Вы не можете прикреплять файлы к сообщениям
    Вы можете скачивать файлы