Ссылка на приватное зеркало нашего сайта всего за 1$. Внимание количество ограничено!!!

2 сезон

iTunes

iTunes

1

iTunes

iTunes

iTunes

WEBRip

iTunes

30
pack

Вам бонус

ВАЖНО

!!Акция!!

Alien_RageХит недели

RePack

Horizon Zero Dawn

ИГРА 18+

pack

RePack

jed

!!Акция!!

Alien_Rage

RePack

fifa19

RePack

Assassins Creed: Odyssey

RePack

NEED FOR SPEED™ PAYBACK

4 сезон

9 сезон

Бесстыжие 9 сезон

Все сериалы

все сериалы на PB.wtf

RePack

FAR CRY 5
  

[AndreaNobiliGirls] Luna Stern & Katy Campbell (The Queens!) [04.06.2012 г., FemDom, Strap-On, BoyAnal, Uniform, Maid, Lesbians, AllSex, SiteRip] pb.wtf

через торрент pb.wtf

Размер: 603 MB | Добавлен: 8 лет 3 мес. назад | Торрент скачан:159 раз
Скачать  

14-06-2012 08:14 Скачать торрент  

[AndreaNobiliGirls.com]
Luna Stern & Katy Campbell
The Queens!
[04.06.2012 г.]

Год производства: 2012 г.
Жанр: FemDom, Strap-On, Boyanal,
Uniform, Maid, Lesbians, AllSex
Продолжительность: 00:36:07

Студия: AndreaNobiliGirls.com

В ролях: Luna Stern & Katy Campbell

Качество видео: SiteRip
Формат видео: MP4
Видео кодек: AVC
Аудио кодек: AAC
Видео: 25.000 fps, 2 200 Kbps, 720x480
Аудио: 127 Kbps, 2 channels, 48.0 KHz

Описание:


All of us have to learn by these two Queens of sex:
strap-on, dildos, dominating, penetrations...

General
Complete name : The Queens.mp4
Format : MPEG-4
Format profile : Base Media
Codec ID : isom
File size : 603 MiB
Duration : 36mn 7s
Overall bit rate : 2 334 Kbps
Movie name : e035_4.mp4
Writing application : Lavf52.108.0

Video
ID : 1
Format : AVC
Format/Info : Advanced Video Codec
Format profile : High@L3.1
Format settings, CABAC : Yes
Format settings, ReFrames : 4 frames
Codec ID : avc1
Codec ID/Info : Advanced Video Coding
Duration : 36mn 7s
Bit rate : 2 200 Kbps
Width : 720 pixels
Height : 480 pixels
Display aspect ratio : 3:2
Frame rate mode : Constant
Frame rate : 25.000 fps
Standard : PAL
Color space : YUV
Chroma subsampling : 4:2:0
Bit depth : 8 bits
Scan type : Progressive
Bits/(Pixel*Frame) : 0.255
Stream size : 569 MiB (94%)
Writing library : x264 core 115 r1947 b5a8ad7
Encoding settings : cabac=1 / ref=3 / deblock=1:0:0 / analyse=0x3:0x113 / me=hex / subme=7 / psy=1 / psy_rd=1.00:0.00 / mixed_ref=1 / me_range=16 / chroma_me=1 / trellis=1 / 8x8dct=1 / cqm=0 / deadzone=21,11 / fast_pskip=1 / chroma_qp_offset=-2 / threads=4 / sliced_threads=0 / nr=0 / decimate=1 / interlaced=0 / bluray_compat=0 / constrained_intra=0 / bframes=3 / b_pyramid=2 / b_adapt=1 / b_bias=0 / direct=1 / weightb=1 / open_gop=0 / weightp=2 / keyint=250 / keyint_min=25 / scenecut=40 / intra_refresh=0 / rc_lookahead=40 / rc=2pass / mbtree=1 / bitrate=2200 / ratetol=1.0 / qcomp=0.60 / qpmin=0 / qpmax=51 / qpstep=4 / cplxblur=20.0 / qblur=0.5 / ip_ratio=1.40 / aq=1:1.00

Audio
ID : 2
Format : AAC
Format/Info : Advanced Audio Codec
Format profile : LC
Codec ID : 40
Duration : 36mn 7s
Bit rate mode : Constant
Bit rate : 127 Kbps
Channel(s) : 2 channels
Channel positions : Front: L R
Sampling rate : 48.0 KHz
Compression mode : Lossy
Delay relative to video : -2s 2ms
Stream size : 32.9 MiB (5%)
pb.wtf



pack Скачать через торрент http://i39.fastpic.ru/big/2012/0614/50/d9bf0923f8013860aa43b657b4066e50.jpg Скачать фильм [AndreaNobiliGirls] Luna Stern & Katy Campbell через торрент бесплантно в хорошем качестве Описание: All of us have to learn by these two Queens of sex:strap-on, dildos, dominating, penetrations... ... 4.6 10 7
Info! Золотая раздача, скачанное не засчитывается.
Торрент: Зарегистрирован [2012-06-14 08:14] · скачан: 159 раз
Статус: √ проверено
Размер: 603 MB
Как cкачать? Как скачать через торрент | qTorrent

28-11-2019 20:33  

Отключить всю рекламу на сайте

    Дорогой пользователь! Огромная просьба, поблагодарите релизера, оцените раздачу и оставьте свои комментарий, если Вы скачали через торрент бесплатно! Внесите свою лепту в развитие PiratBit!
    Комментировать посты могут только пользователи прошедшие не сложную регистрацию
    Показать сообщения:    

    через торрент
    Скачать бесплатно
    скачать торрент
    смотреть онлайн
    Cкачать фильм бесплатно
    скачать торрент в хорошем качестве
    смотреть онлайн бесплатно в хорошем качестве


    Вы не можете начинать темы
    Вы не можете отвечать на сообщения
    Вы не можете редактировать свои сообщения
    Вы не можете удалять свои сообщения
    Вы не можете голосовать в опросах
    Вы не можете прикреплять файлы к сообщениям
    Вы можете скачивать файлы