Ссылка на приватное зеркало нашего сайта всего за 1$. Внимание количество ограничено!!!

2 сезон

iTunes

1 сезон

1

iTunes

iTunes

iTunes

1 сезон

RePack

30

ИГРА 18+

pack

ВАЖНО

!!Акция!!

Alien_RageХит недели

RePack

MK11
pack

Забери бонус

RePack

jed

!!Акция!!

Alien_Rage

RePack

fifa19

RePack

Assassins Creed: Odyssey

RePack

NEED FOR SPEED™ PAYBACK

4 сезон

9 сезон

Бесстыжие 9 сезон

Все сериалы

все сериалы на PB.wtf

RePack

FAR CRY 5
  

2016: Конец ночи / Hell (Тим Фельбаум / Tim Fehlbaum) [2011 г., Германия, Швейцария, ужасы, фэнтези, триллер, BDRemux 1080p] DUB + Original (ger) + Subs (rus, ger) pb.wtf

2016: Конец ночи через торрент pb.wtf

Размер: 14.03 GB | Добавлен: 8 лет 4 мес. назад | Торрент скачан:160 раз
Скачать  

14-06-2012 17:59 2016: Конец ночи Скачать торрент  

2016: Конец ночи / Hell

Страна: Германия, Швейцария
Жанр: ужасы, фантастика, триллер
Год выпуска: 2011
Продолжительность: 01:29:27
Перевод: Профессиональный (дублированный)
Cубтитры: Russian, German
Оригинальная аудиодорожка: German

Режиссер: Тим Фельбаум / Tim Fehlbaum

В ролях: Ханна Херцшпрунг, Стипе Эрчег, Ангела Винклер, Михаэль Кранц, Ларс Айдингер, Лило Баур, Лиза Викари, Энн Сара Хартунг, Йоанн Бланк, Нино Бёло

Описание: Перед тем как окончательно погаснуть, Солнце увеличилось до невероятных размеров и выжгло всю Землю, превратив ее в непригодную для жизни пустыню.Среди немногих выживших - группа молодых людей, которые отправились в горы в поисках воды и пищи. Но эта мысль посетила не только их, и очень скоро ребята оказываются втянуты в безжалостную борьбу за выживание.



Качество: BDRemux 1080p
Контейнер: MKV
Видео кодек: H.264
Аудио кодек: AC3 ; DTS
Видео: H.264, 1920x1080, 23,976 fps, 20000 kbps
Аудио #1: Russian: AC3 5.1, 48 kHz, 384 kbps avg |Дубляж|
Аудио #2: German: DTS-HD MA 5.1, 48 kHz, 2073 kbps avg (DTS Core: 5.1 / 48 kHz / 1509 kbps / 24-bit)
Формат субтитров: softsub (SRT)
Общее
Уникальный идентификатор : 244668819483411603117693177026709151125 (0xB8118026AC328FE3A375BC322209DD95)
Полное имя : E:\Hell.2011.BDRemux.mkv
Формат : Matroska
Версия формата : Version 2
Размер файла : 14,0 Гбайт
Продолжительность : 1 ч. 29 м.
Режим общего битрейта : Переменный
Общий поток : 22,5 Мбит/сек
Название фильма : 2016: Конец ночи
Дата кодирования : UTC 2012-05-03 02:05:23
Программа кодирования : mkvmerge v5.1.0 ('And so it goes') built on Nov 28 2011 23:58:28
Библиотека кодирования : libebml v1.2.3 + libmatroska v1.3.0
Видео
Идентификатор : 1
Формат : AVC
Формат/Информация : Advanced Video Codec
Профиль формата : High@L4.1
Параметр CABAC формата : Да
Параметр ReFrames формата : 4 кадра
Параметр GOP формата : M=3, N=24
Идентификатор кодека : V_MPEG4/ISO/AVC
Продолжительность : 1 ч. 29 м.
Вид битрейта : Переменный
Битрейт : 20,0 Мбит/сек
Максимальный битрейт : 27,0 Мбит/сек
Ширина : 1920 пикселей
Высота : 1080 пикселей
Соотношение сторон : 16:9
Частота кадров : 23,976 кадра/сек
Стандарт вещания : NTSC
Цветовое пространство : YUV
Субдискретизация насыщенности : 4:2:0
Битовая глубина : 8 бит
Тип развёртки : Прогрессивная
Бит/(Пиксели*Кадры) : 0.402
Размер потока : 12,5 Гбайт (89%)
Заголовок : 2016: Конец ночи
Язык : German
Default : Да
Forced : Нет
Основные цвета : BT.709-5, BT.1361, IEC 61966-2-4, SMPTE RP177
Характеристики трансфера : BT.709-5, BT.1361
Коэффициенты матрицы : BT.709-5, BT.1361, IEC 61966-2-4 709, SMPTE RP177
Аудио #1
Идентификатор : 2
Формат : AC-3
Формат/Информация : Audio Coding 3
Расширение режима : CM (complete main)
Параметр Endianness формата : Big
Идентификатор кодека : A_AC3
Продолжительность : 1 ч. 29 м.
Вид битрейта : Постоянный
Битрейт : 384 Кбит/сек
Каналы : 6 каналов
Расположение каналов : Front: L C R, Side: L R, LFE
Частота : 48,0 КГц
Битовая глубина : 16 бит
Метод сжатия : С потерями
Размер потока : 246 Мбайт (2%)
Заголовок : AC3 - Дубляж (R5)
Язык : Russian
Default : Да
Forced : Нет
Аудио #2
Идентификатор : 3
Формат : DTS
Формат/Информация : Digital Theater Systems
Профиль формата : MA / Core
Идентификатор кодека : A_DTS
Продолжительность : 1 ч. 29 м.
Вид битрейта : Переменный
Битрейт : 1630 Кбит/сек / 1510 Кбит/сек
Каналы : 6 каналов
Расположение каналов : Front: L C R, Side: L R, LFE
Частота : 48,0 КГц
Битовая глубина : 16 бит
Метод сжатия : Без потерь / Lossy
Заголовок : DTS-HD
Язык : German
Default : Нет
Forced : Нет
Текст #1
Идентификатор : 4
Формат : UTF-8
Идентификатор кодека : S_TEXT/UTF8
Идентификатор кодека/Информация : UTF-8 Plain Text
Язык : Russian
Default : Нет
Forced : Нет
Текст #2
Идентификатор : 5
Формат : UTF-8
Идентификатор кодека : S_TEXT/UTF8
Идентификатор кодека/Информация : UTF-8 Plain Text
Язык : German
Default : Нет
Forced : Нет
Меню
00:00:00.000 : en:Chapter 01
00:02:25.352 : en:Chapter 02
00:05:56.981 : en:Chapter 03
00:10:25.458 : en:Chapter 04
00:16:18.477 : en:Chapter 05
00:21:17.734 : en:Chapter 06
00:28:15.610 : en:Chapter 07
00:35:30.128 : en:Chapter 08
00:40:29.760 : en:Chapter 09
00:46:21.652 : en:Chapter 10
00:53:00.218 : en:Chapter 11
00:59:01.329 : en:Chapter 12
01:08:24.350 : en:Chapter 13
01:13:31.615 : en:Chapter 14
01:19:18.420 : en:Chapter 15
01:24:25.727 : en:Chapter 16
pb.wtf



Скачать 2016: Конец ночи через торрент http://i33.fastpic.ru/big/2012/0504/26/8cf8b289f40f76e57639ce816b1f6726.png Скачать фильм 2016: Конец ночи через торрент бесплантно в хорошем качестве Описание: Перед тем как окончательно погаснуть, Солнце увеличилось до невероятных размеров и выжгло всю Землю, превратив ее в непригодную ... 10 10 2
Info! Золотая раздача, скачанное не засчитывается.
Торрент: Зарегистрирован [2012-06-14 17:59] · скачан: 160 раз
Статус: √ проверено
Размер: 14.03 GB
Как cкачать? Как скачать 2016: Конец ночи через торрент | qTorrent

% Раздел Тема Автор DL S | L
Фильмы 2011 [ 1.46 GB ] 2016: Конец ночи / Hell [2011 BDRip-AVC] DUB potroks Скачать
1 | 0
Фильмы (Blu-ray, BD-Remux, HDDVD) [ 14.03 GB ] 2016: Конец ночи / Hell [2011 BDRemux] VintMosina Скачать
1 | 0
Фильмы [HD 720p, 1080p] (Хороший звук DUB, MVO) [ 3.73 GB ] 2016: Конец ночи / Hell [2012 BDRip DUB + Оригинал] ~Relizer~ Скачать
1 | 0
Фильмы 2011 [ 1.45 GB ] 2016: Конец ночи / Hell [2011 BDRip DUB от HQ-ViDEO] ~Relizer~ Скачать
1 | 0
Фильмы (DVD фильмы) [ 6.4 GB ] 2016: Конец ночи / Hell [2011 DVD9] R5 voovaz Скачать
1 | 0
Фильмы 2011 [ 691 MB ] 2016: Конец ночи / Hell [2011 DVDRip лицензия] -=Cherry=- Скачать
1 | 0

28-11-2019 20:33  

Отключить всю рекламу на сайте

14-06-2012 19:00 2016: Конец ночи Скачать торрент  

Alik15
Видео кодек:?
Аудио кодек:? Укажи отдельно.
pb.wtf



14-06-2012 19:01 2016: Конец ночи Скачать торрент  

хороший фильм!pb.wtf



14-06-2012 20:10 2016: Конец ночи Скачать торрент  

Нормальный фильм, можно посмотреть.pb.wtf



17-06-2012 13:52 2016: Конец ночи Скачать торрент  

или это у меня одного или в фильме звук отстойныйpb.wtf



    Дорогой пользователь! Огромная просьба, поблагодарите релизера, оцените раздачу и оставьте свои комментарий, если Вы скачали 2016: Конец ночи через торрент бесплатно! Внесите свою лепту в развитие PiratBit!
    Комментировать посты могут только пользователи прошедшие не сложную регистрацию
    Показать сообщения:    

    2016: Конец ночи через торрент
    Скачать бесплатно 2016: Конец ночи
    2016: Конец ночи скачать торрент
    2016: Конец ночи смотреть онлайн
    Cкачать фильм 2016: Конец ночи бесплатно
    2016: Конец ночи скачать торрент в хорошем качестве
    2016: Конец ночи смотреть онлайн бесплатно в хорошем качестве


    Вы не можете начинать темы
    Вы не можете отвечать на сообщения
    Вы не можете редактировать свои сообщения
    Вы не можете удалять свои сообщения
    Вы не можете голосовать в опросах
    Вы не можете прикреплять файлы к сообщениям
    Вы можете скачивать файлы