новый адрес
Мега распродажа FORZA HORIZON 4 ULTIMATE+ВСЕ DLC+ОНЛАЙН всего за 499р. 349 руб. (супер цена). Внимание количество ограничено!!!

iTunes

1+1

iTunes

мы

iTunes

1

iTunes

Чернобыль

iTunes

Ральф против интернета

Лицензия

ПШазам

Лицензия

Игра престолов

Лицензия

30
pack

ВАЖНО

!!Акция!!

Alien_RageХит недели

RePack

Resident Evil 21

ИГРА 18+

pack

RePack

Metro:Exodus

!!Акция!!

Alien_Rage

RePack

fifa19

RePack

Assassins Creed: Odyssey

RePack

NEED FOR SPEED™ PAYBACK

3 сезон

9 сезон

Бесстыжие 9 сезон

Все сериалы

все сериалы на PB.wtf

RePack

FAR CRY 5
Ребята, катастрофически не хватает 1900р. для оплаты серверов за Октябрь (всвязи с блокировками трафик упал в 3 раза), 1-2р., выручайте.
  

Попугай, говорящий на идиш (Эфраим Севела) [1990 г., драма, комедия, приключения, военный, SATRip] pb.wtf

Попугай, говорящий на идиш через торрент pb.wtf

Качают: 1 [ 0 KB/s ]
Размер: 703 MB | Добавлен: 7 лет 5 мес. назад | Торрент скачан:14 раз
Скачать  

15-06-2012 14:04 Попугай, говорящий на идиш Скачать торрент  

Попугай, говорящий на идиш

Год выпуска: 1990
Страна: Германия, СССР
Жанр: драма, комедия, приключения, военный
Продолжительность: 01:25:05
Перевод: Не требуется

Режиссер: Эфраим Севела
Продюссер: Андрей Борцов, Миша Ламперт, Сергей Сенин

IMDB 4.80 (22)


В ролях: Рамаз Иоселиани, Авангард Леонтьев, Марина Полицеймако, Семен Фарада, Альгис Матулёнис, Аудрюс Хадаравичюс, Анна Афанасьева, Юлия Менакерман, Карина Моритц, Вадим Жук

Описание: О забавных приключениях молодого недотепы Янкеля во время второй мировой войны, который выживает благодаря своей нерасторопности. Наемным легионером он попадает в плен, пройдет по Сицилии с армией союзников и окажется в Индокитае. И везде его будет сопровождать слава.

Качество: SATRip
Формат: AVI
Видео кодек: XviD
Аудио кодек: MP3
Видео: 480x360 (1.33:1), 25 fps, XviD MPEG-4 ~1017 kbps avg, 0.23 bit/pixel
Аудио#1: Русский: 44.100 kHz, MPEG Layer 3, 2 ch, ~128.00 kbps avg




Общее
Полное имя : F:\Закачки\Popugai.Govorjshiy.Na.Idish.1990.SATRip.avi
Формат : AVI
Формат/Информация : Audio Video Interleave
Размер файла : 703 Мбайт
Продолжительность : 1 ч. 25 м.
Общий поток : 1155 Кбит/сек
Библиотека кодирования : VirtualDub-MPEG2 build 23843/release

Видео
Идентификатор : 0
Формат : MPEG-4 Visual
Профиль формата : Advanced Simple@L5
Параметр BVOP формата : 2
Параметр QPel формата : Нет
Параметр GMC формата : Без точки перехода
Параметр матрицы формата : Default (H.263)
Режим смешивания : Сжатый битовый поток
Идентификатор кодека : XVID
Идентификатор кодека/Подсказка : XviD
Продолжительность : 1 ч. 25 м.
Битрейт : 1017 Кбит/сек
Ширина : 480 пикселей
Высота : 360 пикселей
Соотношение сторон : 4:3
Частота кадров : 25,000 кадров/сек
Цветовое пространство : YUV
Субдискретизация насыщенности : 4:2:0
Битовая глубина : 8 бит
Тип развёртки : Прогрессивная
Метод сжатия : С потерями
Бит/(Пиксели*Кадры) : 0.235
Размер потока : 619 Мбайт (88%)
Библиотека кодирования : XviD 1.2.0SMP (UTC 2006-01-08)

Аудио
Идентификатор : 1
Формат : MPEG Audio
Версия формата : Version 1
Профиль формата : Layer 3
Идентификатор кодека : 55
Идентификатор кодека/Подсказка : MP3
Продолжительность : 1 ч. 25 м.
Вид битрейта : Постоянный
Битрейт : 128 Кбит/сек
Каналы : 2 канала
Частота : 44,1 КГц
Метод сжатия : С потерями
Размер потока : 77,9 Мбайт (11%)
Выравнивание : Разделение по промежуткам
Продолжительность промежутка : 40 мс. (1,00 видеокадр)
Время предзагрузки промежутка : 500 мс.
Библиотека кодирования : LAME3.92
Настройки программы : -m s -V 4 -q 5 -lowpass 13.8 -b 128

pb.wtf



Скачать Попугай, говорящий на идиш через торрент http://i39.fastpic.ru/big/2012/0615/1f/a38a719c0dbc18b2bfef3a10a370f61f.jpg Скачать фильм Попугай, говорящий на идиш через торрент бесплантно в хорошем качестве Описание: О забавных приключениях молодого недотепы Янкеля во время второй мировой войны, который выживает благодаря своей нерасторопности. ... 10 10 2
Info! Золотая раздача, скачанное не засчитывается.
Торрент: Зарегистрирован [2012-06-15 14:04] · скачан: 14 раз
Статус: √ проверено
Размер: 703 MB
Как cкачать? Как скачать Попугай, говорящий на идиш через торрент | qTorrent


>> Регистрируемся здесь <<






Отзывы и комментарии о схеме читаем и пишем здесь: ---> Отзывы и комментарии о схеме

Новые благодарочки в телеграм довольных пользователей:
скриншот   скриншот   скриншот   скриншот   скриншот
    Дорогой пользователь! Огромная просьба, поблагодарите релизера, оцените раздачу и оставьте свои комментарий, если Вы скачали Попугай, говорящий на идиш через торрент бесплатно! Внесите свою лепту в развитие PiratBit!
    Комментировать посты могут только пользователи прошедшие не сложную регистрацию
    Показать сообщения:    

    Попугай, говорящий на идиш через торрент
    Скачать бесплатно Попугай, говорящий на идиш
    Попугай, говорящий на идиш скачать торрент
    Попугай, говорящий на идиш смотреть онлайн
    Cкачать фильм Попугай, говорящий на идиш бесплатно
    Попугай, говорящий на идиш скачать торрент в хорошем качестве
    Попугай, говорящий на идиш смотреть онлайн бесплатно в хорошем качестве


    Вы не можете начинать темы
    Вы не можете отвечать на сообщения
    Вы не можете редактировать свои сообщения
    Вы не можете удалять свои сообщения
    Вы не можете голосовать в опросах
    Вы не можете прикреплять файлы к сообщениям
    Вы можете скачивать файлы