2 сезон

iTunes

1 сезон

1

iTunes

iTunes

iTunes

1 сезон

RePack

30

ИГРА 18+

pack

ВАЖНО

!!Акция!!

Alien_RageХит недели

RePack

MK11
pack

Забери бонус

RePack

jed

!!Акция!!

Alien_Rage

RePack

fifa19

RePack

Assassins Creed: Odyssey

RePack

NEED FOR SPEED™ PAYBACK

4 сезон

9 сезон

Бесстыжие 9 сезон

Все сериалы

все сериалы на PB.wtf

RePack

FAR CRY 5
  

Интимные фотки / Self Pic (Robby D / Digital Playground) [2011 г., Feature, BDRip (720p)] pb.wtf

Интимные фотки через торрент pb.wtf

Размер: 4.37 GB | Добавлен: 8 лет 4 мес. назад | Торрент скачан:337 раз
Скачать  

16-06-2012 11:37 Интимные фотки Скачать торрент  

Интимные фотки / Self Pic Год выпуска: 2011
Страна: USA
Жанр: Feature
Продолжительность: 01:44:06

Режиссер: Robby D

Студия: Digital Playground

В ролях: Lexi Belle, Jynx Maze, Riley Steele, Selena Rose, Manuel Ferrara, Erik Everhard, Nacho Vidal

Описание: She's not afraid to show you everything.
Self Pic movie Sexy Selena Rose loves taking nude pictures of her beautiful body with her cellphone, but she never imagined snapping dirty photos would get her spreading her pretty thighs for Manuel Ferrara's big rod injection! Jynx Maze, Manuel's gorgeous girlfriend refuses to pose naked for his perverted needs, but Selena Rose is ready and willing to drink up his creamy eruptions as well as thick stud Nacho Vidal! Horny and hung Erik Everhard bangs hot Riley Steele and little tease Lexi Belle for his naughty nude collection of cellphones pics too!.battle of love and lust, as a horny mother must teach her hungry daughter how to satisfy her deepest desires.

Качество: BDRip (720p)
Формат: MKV
Видео кодек: H.26x
Аудио кодек: AC3
Видео: 1280x720, 23,976 fps, ~5372 Kbps
Аудио#1: 48 kHz, 6 ch, 640 kbps

Общее
Уникальный идентификатор : 224408519902091918232105199015973968349 (0xA8D38242636AB1EA9ED9BF38093959DD)
Полное имя : Self.Pic.XXX.720p.Bluray.x264-DPXXXHD.mkv
Формат : Matroska
Версия формата : Version 2
Размер файла : 4,37 Гбайт
Продолжительность : 1 ч. 44 м.
Общий поток : 6012 Кбит/сек
Дата кодирования : UTC 2012-06-15 12:40:53
Программа кодирования : mkvmerge v5.2.1 ('A Far Off Place') built on Jan 2 2012 23:21:10
Библиотека кодирования : libebml v1.2.3 + libmatroska v1.3.0
Видео
Идентификатор : 1
Формат : AVC
Формат/Информация : Advanced Video Codec
Профиль формата : High@L4.1
Параметр CABAC формата : Да
Параметр ReFrames формата : 5 кадров
Идентификатор кодека : V_MPEG4/ISO/AVC
Продолжительность : 1 ч. 44 м.
Битрейт : 5372 Кбит/сек
Ширина : 1280 пикселей
Высота : 720 пикселей
Соотношение сторон : 16:9
Частота кадров : 23,976 кадра/сек
Цветовое пространство : YUV
Субдискретизация насыщенности : 4:2:0
Битовая глубина : 8 бит
Тип развёртки : Прогрессивная
Бит/(Пиксели*Кадры) : 0.243
Размер потока : 3,82 Гбайт (87%)
Библиотека кодирования : x264 core 120 r2164 da19765
Настройки программы : cabac=1 / ref=5 / deblock=1:0:0 / analyse=0x3:0x133 / me=umh / subme=7 / psy=1 / psy_rd=1.00:0.00 / mixed_ref=1 / me_range=16 / chroma_me=1 / trellis=1 / 8x8dct=1 / cqm=0 / deadzone=21,11 / fast_pskip=1 / chroma_qp_offset=-2 / threads=12 / sliced_threads=0 / nr=0 / decimate=1 / interlaced=0 / bluray_compat=0 / constrained_intra=0 / bframes=3 / b_pyramid=2 / b_adapt=1 / b_bias=0 / direct=1 / weightb=1 / open_gop=0 / weightp=2 / keyint=240 / keyint_min=23 / scenecut=40 / intra_refresh=0 / rc_lookahead=40 / rc=2pass / mbtree=1 / bitrate=5372 / ratetol=1.0 / qcomp=0.60 / qpmin=10 / qpmax=51 / qpstep=4 / cplxblur=20.0 / qblur=0.5 / ip_ratio=1.40 / aq=1:1.00
Default : Да
Forced : Нет
Аудио
Идентификатор : 2
Формат : AC-3
Формат/Информация : Audio Coding 3
Расширение режима : CM (complete main)
Параметр Endianness формата : Big
Идентификатор кодека : A_AC3
Продолжительность : 1 ч. 44 м.
Вид битрейта : Постоянный
Битрейт : 640 Кбит/сек
Каналы : 6 каналов
Расположение каналов : Front: L C R, Side: L R, LFE
Частота : 48,0 КГц
Битовая глубина : 16 бит
Метод сжатия : С потерями
Размер потока : 477 Мбайт (11%)
Язык : English
Default : Да
Forced : Нет

pb.wtf



pack Скачать Интимные фотки через торрент http://pic.kartinco.top/images/1/qw2qexm7ar.png Скачать фильм Интимные фотки через торрент бесплантно в хорошем качестве Описание: She's not afraid to show you everything.Self Pic movie Sexy Selena Rose loves taking nude pictures of her beautiful body with her ... 10 10 1
Info! Золотая раздача, скачанное не засчитывается.
Торрент: Зарегистрирован [2012-06-16 11:37] · скачан: 337 раз
Статус: √ проверено
Размер: 4.37 GB
Как cкачать? Как скачать Интимные фотки через торрент | qTorrent

28-11-2019 20:33  

Отключить всю рекламу на сайте

    Дорогой пользователь! Огромная просьба, поблагодарите релизера, оцените раздачу и оставьте свои комментарий, если Вы скачали Интимные фотки через торрент бесплатно! Внесите свою лепту в развитие PiratBit!
    Комментировать посты могут только пользователи прошедшие не сложную регистрацию
    Показать сообщения:    

    Интимные фотки через торрент
    Скачать бесплатно Интимные фотки
    Интимные фотки скачать торрент
    Интимные фотки смотреть онлайн
    Cкачать фильм Интимные фотки бесплатно
    Интимные фотки скачать торрент в хорошем качестве
    Интимные фотки смотреть онлайн бесплатно в хорошем качестве


    Вы не можете начинать темы
    Вы не можете отвечать на сообщения
    Вы не можете редактировать свои сообщения
    Вы не можете удалять свои сообщения
    Вы не можете голосовать в опросах
    Вы не можете прикреплять файлы к сообщениям
    Вы можете скачивать файлы