Ссылка на приватное зеркало нашего сайта всего за 1$. Внимание количество ограничено!!!

2 сезон

iTunes

1 сезон

1

iTunes

iTunes

iTunes

1 сезон

RePack

30

ИГРА 18+

pack

ВАЖНО

!!Акция!!

Alien_RageХит недели

RePack

MK11
pack

Забери бонус

RePack

jed

!!Акция!!

Alien_Rage

RePack

fifa19

RePack

Assassins Creed: Odyssey

RePack

NEED FOR SPEED™ PAYBACK

4 сезон

9 сезон

Бесстыжие 9 сезон

Все сериалы

все сериалы на PB.wtf

RePack

FAR CRY 5
  

Из Парижа с любовью / From Paris with Love (Пьер Морель) [2010 г., боевик, триллер, комедия, криминал, BDRip (1080p), DUB (лицензия)] pb.wtf

Из Парижа с любовью через торрент pb.wtf

Размер: 15.91 GB | Добавлен: 8 лет 4 мес. назад | Торрент скачан:68 раз
Скачать  

17-06-2012 12:17 Из Парижа с любовью Скачать торрент  




Из Парижа с любовью / From Paris with Love

Год выпуска: 2010
Страна: Франция
Жанр: боевик, триллер, комедия, криминал
Продолжительность: 01:32:39
Перевод: Дубляж (Лицензия)
Тип релиза: Лицензия
Cубтитры: русские, английские, румынские, испанские
Оригинальная аудиодорожка: английский

Режиссер: Пьер Морель
Продюссер: Ади Хасак, Люк Бессон
Сценарий: Люк Бессон, Индия Осборн, Вирджиния Силла, ...

Бюджет: $52 000 000
Премьера в мире: 4 февраля 2010



В ролях: Джон Траволта, Джонатан Рис-Майерс, Касия Смутняк, Ричард Дерден, Йин Бинг, Эмбер Роуз Рева, Эрик Годон, François Bredon, Чемс Дамани, Сами Дарр


Джеймсу можно позавидовать: должность личного помощника посла США во Франции, красавица-парижанка в качестве подружки, дорогие костюмы и непыльная работенка оперативника ЦРУ. Но мечтает он совсем о другом, о полной приключений жизни настоящего тайного агента, спасающего мир кулаками, выстрелами и едкими репликами. Судьба иронично улыбается Джеймсу. Он получает настоящее боевое задание в придачу с напарником-сорвиголовой Чарли Уэксом. Но вскоре он понимает, что быть супер агентом не так уж и здорово, как он представлял.

Доп. информация: Сохранены оригинальные чаптеры как на Blu-ray.
За авторские русские субтитры большое спасибо voronine!

Качество: BDRip (1080p)
Формат: MKV
Видео кодек: MPEG4-AVC
Аудио кодек: AC3,DTS
Видео: MPEG-4 AVC, 1920x820 (2.35:1), at 23.976 fps, ~19 Mbps avg, High Profile 4.1
Аудио#1: DTS, 48 kHz, 3/2 (L,C,R,l,r) + LFE ch, ~1536.00 kbps avg [Russian] |Дубляж, R5|
Аудио#2: AC3, 48 kHz, 3/2 (L,C,R,l,r) + LFE ch, ~384.00 kbps avg [Ukrainian] |Дубляж, R5|
Аудио#3: DTS, 48 kHz, 3/2 (L,C,R,l,r) + LFE ch, ~1536.00 kbps avg [Russian] |Одноголосый закадровый, А. Гаврилов|
Аудио#4: AC3, 48 kHz, 3/2 (L,C,R,l,r) + LFE ch, ~448.00 kbps avg [Russian] |Одноголосый закадровый, Ю. Немахов|
Аудио 5: DTS, 48 kHz, 3/2 (L,C,R,l,r) + LFE ch, ~1536.00 kbps avg [English]
Аудио 6: AC3, 48 kHz, 2/0 (L,R) ch, ~224.00 kbps avg [English] |Director's Commentary|
Формат субтитров: softsub (SRT) Russian, Russian (Colored), Russian (Colored, SDH), (ASS) English, Romanian, Spanish
Релиз от: [Рип от EbP!]




General
Unique ID : 202286820153645367041881331561075925568 (0x982F0640F89084BF8538C110E6A96240)
Complete name : From.Paris.With.Love.2010.BDRip.1080p.mkv
Format : Matroska
Format version : Version 2
File size : 15.9 GiB
Duration : 1h 32mn
Overall bit rate : 24.6 Mbps
Movie name : From Paris with Love (2010) - **RVS**
Encoded date : UTC 2012-06-15 07:45:02
Writing application : mkvmerge v5.2.0 ('I can't explain') built on Dec 18 2011 18:12:03
Writing library : libebml v1.2.3 + libmatroska v1.3.0
Attachment : Yes / Yes / Yes

Video
ID : 1
Format : AVC
Format/Info : Advanced Video Codec
Format profile : High@L4.1
Format settings, CABAC : Yes
Format settings, ReFrames : 5 frames
Codec ID : V_MPEG4/ISO/AVC
Duration : 1h 32mn
Bit rate : 19.0 Mbps
Width : 1 920 pixels
Height : 820 pixels
Display aspect ratio : 2.35:1
Frame rate : 23.976 fps
Color space : YUV
Chroma subsampling : 4:2:0
Bit depth : 8 bits
Scan type : Progressive
Bits/(Pixel*Frame) : 0.503
Stream size : 12.0 GiB (75%)
Title : From Paris with Love
Writing library : x264 core 98 r1629 2e81ce1
Encoding settings : cabac=1 / ref=5 / deblock=1:-3:-3 / analyse=0x3:0x113 / me=tesa / subme=10 / psy=1 / psy_rd=1.10:0.00 / mixed_ref=1 / me_range=16 / chroma_me=1 / trellis=2 / 8x8dct=1 / cqm=0 / deadzone=21,11 / fast_pskip=0 / chroma_qp_offset=-2 / threads=12 / sliced_threads=0 / nr=0 / decimate=0 / interlaced=0 / constrained_intra=0 / bframes=7 / b_pyramid=2 / b_adapt=2 / b_bias=0 / direct=3 / weightb=1 / weightp=2 / keyint=250 / keyint_min=25 / scenecut=40 / intra_refresh=0 / rc=2pass / mbtree=0 / bitrate=19000 / ratetol=1.0 / qcomp=0.60 / qpmin=10 / qpmax=51 / qpstep=4 / cplxblur=20.0 / qblur=0.5 / ip_ratio=1.40 / pb_ratio=1.30 / aq=1:0.80
Language : English
Default : Yes
Forced : No

Audio #1
ID : 2
Format : DTS
Format/Info : Digital Theater Systems
Codec ID : A_DTS
Duration : 1h 32mn
Bit rate mode : Constant
Bit rate : 1 510 Kbps
Channel(s) : 6 channels
Channel positions : Front: L C R, Side: L R, LFE
Sampling rate : 48.0 KHz
Bit depth : 24 bits
Compression mode : Lossy
Stream size : 1 001 MiB (6%)
Title : DTS 5.1 @ 1536 kbps - Дублированный
Language : Russian
Default : Yes
Forced : No

Audio #2
ID : 3
Format : AC-3
Format/Info : Audio Coding 3
Mode extension : CM (complete main)
Codec ID : A_AC3
Duration : 1h 32mn
Bit rate mode : Constant
Bit rate : 384 Kbps
Channel(s) : 6 channels
Channel positions : Front: L C R, Side: L R, LFE
Sampling rate : 48.0 KHz
Bit depth : 16 bits
Compression mode : Lossy
Stream size : 254 MiB (2%)
Title : AC3 5.1 @ 384 kbps - Дублированный
Language : Ukrainian
Default : No
Forced : No

Audio #3
ID : 4
Format : DTS
Format/Info : Digital Theater Systems
Codec ID : A_DTS
Duration : 1h 32mn
Bit rate mode : Constant
Bit rate : 1 510 Kbps
Channel(s) : 6 channels
Channel positions : Front: L C R, Side: L R, LFE
Sampling rate : 48.0 KHz
Bit depth : 24 bits
Compression mode : Lossy
Stream size : 1 001 MiB (6%)
Title : DTS 5.1 @ 1536 kbps - Авторский одноголосый А.Гаврилов
Language : Russian
Default : No
Forced : No

Audio #4
ID : 5
Format : AC-3
Format/Info : Audio Coding 3
Mode extension : CM (complete main)
Codec ID : A_AC3
Duration : 1h 32mn
Bit rate mode : Constant
Bit rate : 448 Kbps
Channel(s) : 6 channels
Channel positions : Front: L C R, Side: L R, LFE
Sampling rate : 48.0 KHz
Bit depth : 16 bits
Compression mode : Lossy
Stream size : 297 MiB (2%)
Title : AC3 5.1 @ 448 kbps - Авторский одноголосый Ю.Немахов
Language : Russian
Default : No
Forced : No

Audio #5
ID : 6
Format : DTS
Format/Info : Digital Theater Systems
Codec ID : A_DTS
Duration : 1h 32mn
Bit rate mode : Constant
Bit rate : 1 510 Kbps
Channel(s) : 6 channels
Channel positions : Front: L C R, Side: L R, LFE
Sampling rate : 48.0 KHz
Bit depth : 24 bits
Compression mode : Lossy
Stream size : 1 001 MiB (6%)
Title : English DTS @ 1509kbps
Language : English
Default : No
Forced : No

Audio #6
ID : 7
Format : AC-3
Format/Info : Audio Coding 3
Format profile : Dolby Digital
Mode extension : CM (complete main)
Codec ID : A_AC3
Duration : 1h 32mn
Bit rate mode : Constant
Bit rate : 224 Kbps
Channel(s) : 2 channels
Channel positions : Front: L R
Sampling rate : 48.0 KHz
Bit depth : 16 bits
Compression mode : Lossy
Stream size : 148 MiB (1%)
Title : English commentary ogg vorbis @ 80kbps
Language : English
Default : No
Forced : No

Text #1
ID : 8
Format : UTF-8
Codec ID : S_TEXT/UTF8
Codec ID/Info : UTF-8 Plain Text
Language : Russian
Default : No
Forced : No

Text #2
ID : 9
Format : UTF-8
Codec ID : S_TEXT/UTF8
Codec ID/Info : UTF-8 Plain Text
Title : Colored
Language : Russian
Default : No
Forced : No

Text #3
ID : 10
Format : UTF-8
Codec ID : S_TEXT/UTF8
Codec ID/Info : UTF-8 Plain Text
Title : Colored, SDH
Language : Russian
Default : No
Forced : No

Text #4
ID : 11
Format : ASS
Codec ID : S_TEXT/ASS
Codec ID/Info : Advanced Sub Station Alpha
Compression mode : Lossless
Language : English
Default : No
Forced : No

Text #5
ID : 12
Format : ASS
Codec ID : S_TEXT/ASS
Codec ID/Info : Advanced Sub Station Alpha
Compression mode : Lossless
Language : Romanian
Default : No
Forced : No

Text #6
ID : 13
Format : ASS
Codec ID : S_TEXT/ASS
Codec ID/Info : Advanced Sub Station Alpha
Compression mode : Lossless
Language : Spanish
Default : No
Forced : No

Menu
00:00:00.000 : en:00:00:00.000
00:06:41.484 : en:00:06:41.484
00:10:17.492 : en:00:10:17.492
00:17:21.332 : en:00:17:21.332
00:20:18.676 : en:00:20:18.676
00:24:47.820 : en:00:24:47.820
00:29:43.615 : en:00:29:43.615
00:37:39.340 : en:00:37:39.340
00:44:23.452 : en:00:44:23.452
00:49:37.516 : en:00:49:37.516
00:53:12.231 : en:00:53:12.231
00:58:11.947 : en:00:58:11.947
01:05:33.429 : en:01:05:33.429
01:12:38.771 : en:01:12:38.771
01:18:35.044 : en:01:18:35.044
01:25:38.925 : en:01:25:38.925

pb.wtf



Скачать Из Парижа с любовью через торрент http://i39.fastpic.ru/big/2012/0617/b4/21f91afb196a129d158b7da257175db4.png Скачать фильм Из Парижа с любовью через торрент бесплантно в хорошем качестве В ролях: Джон Траволта, Джонатан Рис-Майерс, Касия Смутняк, Ричард Дерден, Йин Бинг, Эмбер Роуз Рева, Эрик Годон, François Bredon, Чемс ... 10 10 1
Info! Золотая раздача, скачанное не засчитывается.
Торрент: Зарегистрирован [2012-06-17 12:17] · скачан: 68 раз
Статус: √ проверено
Размер: 15.91 GB
Как cкачать? Как скачать Из Парижа с любовью через торрент | qTorrent

% Раздел Тема Автор DL S | L
Фильмы [HD 720p, 1080p] (Хороший звук DUB, MVO) [ 6.87 GB ] Из Парижа с любовью / From Paris with Love [2009 BDRip-HEVC 1080p] DUB + 3xAVO RealOldGamer Скачать
2 | 0
Фильмы (Blu-ray, BD-Remux, HDDVD) [ 28.54 GB ] Из Парижа с любовью / From Paris with Love [2010 BDRemux 1080p] DUB + AVO + Sub rus eng + original eng Ворон Скачать
1 | 0
Фильмы (HD 720p, 1080p) (48-60 fps) [ 4.45 GB ] Из Парижа с любовью / From Paris with Love [2010 BDRip 720p ] Rus + Ukr + Original Eng slaventi-69 Скачать
1 | 0
Фильмы с авторской озвучкой [ 1.46 GB ] Из Парижа с любовью / From Paris with Love [2010 BDRip Авторский одноголосный] killermax2013 Скачать
1 | 0
Фильмы 2010 [ 1.45 GB ] Из Парижа с любовью / From Paris with Love [2010 HDRip DUB + DUB ] bogyn Скачать
1 | 0
Фильмы [HD 720p, 1080p] (Хороший звук DUB, MVO) [ 2.22 GB ] Из Парижа с любовью / From Paris with Love [2009 BDRip ] ACFIORENTINA Скачать
1 | 0
Фильмы 2010 [ 1.46 GB ] Из Парижа с любовью / From Paris with Love [2010 DVDRip-AVC] tyry999 Скачать
1 | 0

28-11-2019 20:33  

Отключить всю рекламу на сайте

17-06-2012 13:08 Из Парижа с любовью Скачать торрент  

Приятного просмотра!!!pb.wtf



    Дорогой пользователь! Огромная просьба, поблагодарите релизера, оцените раздачу и оставьте свои комментарий, если Вы скачали Из Парижа с любовью через торрент бесплатно! Внесите свою лепту в развитие PiratBit!
    Комментировать посты могут только пользователи прошедшие не сложную регистрацию
    Показать сообщения:    

    Из Парижа с любовью через торрент
    Скачать бесплатно Из Парижа с любовью
    Из Парижа с любовью скачать торрент
    Из Парижа с любовью смотреть онлайн
    Cкачать фильм Из Парижа с любовью бесплатно
    Из Парижа с любовью скачать торрент в хорошем качестве
    Из Парижа с любовью смотреть онлайн бесплатно в хорошем качестве


    Вы не можете начинать темы
    Вы не можете отвечать на сообщения
    Вы не можете редактировать свои сообщения
    Вы не можете удалять свои сообщения
    Вы не можете голосовать в опросах
    Вы не можете прикреплять файлы к сообщениям
    Вы можете скачивать файлы