Ссылка на приватное зеркало нашего сайта всего за 1$. Внимание количество ограничено!!!

2 сезон

iTunes

1 сезон

1

2 сезон

2 сезон

iTunes

1 сезон

RePack

30

Ultimate

ВАЖНО

ИГРА 18+

pack

RePack

MK11
pack

Забери бонус

RePack

jed

!!Акция!!

Alien_Rage

RePack

fifa19

RePack

Assassins Creed: Odyssey

RePack

NEED FOR SPEED™ PAYBACK

4 сезон

9 сезон

Бесстыжие 9 сезон

Все сериалы

все сериалы на PB.wtf

RePack

FAR CRY 5
  

Визитёры / V / Visitors / сезон 1-2 (2) / серии 1-22 (22) (Yves Simoneau)[2010-2011 г., боевик, фантастика, WEB-DLRip](LostFilm) pb.wtf

Визитёры через торрент pb.wtf

Размер: 9.36 GB | Добавлен: 8 лет 5 мес. назад | Торрент скачан:168 раз
Скачать  

17-06-2012 22:41 Визитёры Скачать торрент  

Vизитеры (сериал) / V ( Сезон 1-2 )Все 22 серии (22)
Год выпуска: 2009-2011
Страна: США
Жанр: фантастика, триллер, драма
Продолжительность: 45 мин х 22 серии

Режиссер: Ив Симоно, Дэвид Баррет, Брайан Спайсер
Продюссер: Кэти Гилрой-Серида, Чарльз Мюррэй, Кристин Роум
Сценарий: Кеннет Джонсон, Скотт Питерс, Грегг Харвитц
Премьера в мире: 3 ноября 2009
IMDB 6.90 (21 986)

В ролях: Элизабет Митчелл, Моррис Честнат, Джоэль Гретш, Логан Хаффман, Лора Вандервурт, Морена Баккарин, Скотт Вулф, Кристофер Шайер, Чарльз Межер, Марк Хилдрет, Анна Геллер, Станислав Концевич, Валерий Соловьев, Михаил Хрусталев, Юлия Рудина
Описание
:
Сегодня весь мир проснулся и увидел, что над каждым городом парят космические корабли. Прибывшие утверждают что пришли с миром, и предлагают подарки в виде медицинских открытий и технологических усовершенствований. Они обещают, что не навредят. Они лгут. Большинство человечества верит, что чужие прибыли как раз тогда, когда мы в них нуждались. Люди с радостью принимают их помощь.

Но во время расследования террористической ячейки агент госбезопасности Эрика Эванс обнаруживает нечто вовсе не безобидное. Когда ее напарник пытается ее убить, Эрика обнаруживает, что пришельцы планируют внедриться в правительства и крупные корпорации, чтобы в будущем захватить все человечество. Но убедить в этом остальных практически невозможно, ведь в руках пришельцев два мощных козыря. Во-первых, они завоевали веру и любовь людей, благодаря своим подаркам. Во-вторых, они взяли под контроль почти всех подростков.

Тысячи подростков, включая сына Эрики, были назначены «послами мира», но на самом деле они шпионят для пришельцев, не подозревая об этом. Эрика вынуждена вступить в движение сопротивления, где она знакомится с Райаном, пришельцем, который хочет спасти человечество. Эрике придется находить равновесие между сопротивлением, работой, и заботой о своем сыне, который принял сторону врагов.

Год выпуска: 2009-2010
Страна: США
Жанр: фантастика, триллер, драма
Продолжительность: 45 мин х 12 серии
Перевод:Профессиональный (многоголосый, закадровый) (LostFilm)
Русские субтитры: нет
Режиссер: Ив Симоно, Дэвид Баррет, Брайан Спайсер
Продюссер: Кэти Гилрой-Серида, Чарльз Мюррэй, Кристин Роум
Сценарий: Кеннет Джонсон, Скотт Питерс, Грегг Харвитц

В ролях: Элизабет Митчелл, Моррис Честнат, Джоэль Гретш, Логан Хаффман, Лора Вандервурт, Морена Баккарин, Скотт Вулф, Кристофер Шайер, Чарльз Межер, Марк Хилдрет, Анна Геллер, Станислав Концевич, Валерий Соловьев, Михаил Хрусталев, Юлия Рудина

Описание: Сегодня весь мир проснулся и увидел, что над каждым городом парят космические корабли. Прибывшие утверждают что пришли с миром, и предлагают подарки в виде медицинских открытий и технологических усовершенствований. Они обещают, что не навредят. Они лгут. Большинство человечества верит, что чужие прибыли как раз тогда, когда мы в них нуждались. Люди с радостью принимают их помощь.

Но во время расследования террористической ячейки агент госбезопасности Эрика Эванс обнаруживает нечто вовсе не безобидное. Когда ее напарник пытается ее убить, Эрика обнаруживает, что пришельцы планируют внедриться в правительства и крупные корпорации, чтобы в будущем захватить все человечество. Но убедить в этом остальных практически невозможно, ведь в руках пришельцев два мощных козыря. Во-первых, они завоевали веру и любовь людей, благодаря своим подаркам. Во-вторых, они взяли под контроль почти всех подростков.

Тысячи подростков, включая сына Эрики, были назначены «послами мира», но на самом деле они шпионят для пришельцев, не подозревая об этом. Эрика вынуждена вступить в движение сопротивления, где она знакомится с Райаном, пришельцем, который хочет спасти человечество. Эрике придется находить равновесие между сопротивлением, работой, и заботой о своем сыне, который принял сторону врагов.
Качество: WEB-DLRip
Формат: AVI
Видео кодек: XviD
Аудио кодек: MP3
Видео: WEB-DLRip, 624х352, 23.976 fps, ~1 121 kbps, 0.213 bit/pixel
Аудио 1: rus - 48 Khz, МР3, 2 ch, 128 kbps
Аудио 2: eng - 48 Khz, МР3, 2 ch, 128 kbps

1. Пилотная серия
2. Прежняя жизнь окончена
3. Новый день
4. Всё только начинается
5. Война началась
6. Фунт мяса
7. Джон Мэй
8. Мы не сможем победить
9. Вилка еретика
10. Разум и душа
11. Достижение цели
12. Красное небо





















General
Complete name : H:\Ôèëüìû_Ñåðèàëû_Âèäåî\V 1 - LostFilm.TV\V.s01e02.rus.LostFilm.TV.avi
Format : AVI
Format/Info : Audio Video Interleave
File size : 392 MiB
Duration : 43mn 4s
Overall bit rate : 1 272 Kbps
Writing application : Nandub v1.0rc2
Writing library : Nandub build 1852/release

Video
ID : 0
Format : MPEG-4 Visual
Format profile : Advanced Simple@L5
Format settings, BVOP : 1
Format settings, QPel : No
Format settings, GMC : No warppoints
Format settings, Matrix : Custom
Codec ID : XVID
Codec ID/Hint : XviD
Duration : 43mn 4s
Bit rate : 1 131 Kbps
Width : 624 pixels
Height : 352 pixels
Display aspect ratio : 16:9
Frame rate : 23.976 fps
Color space : YUV
Chroma subsampling : 4:2:0
Bit depth : 8 bits
Scan type : Progressive
Compression mode : Lossy
Bits/(Pixel*Frame) : 0.215
Stream size : 349 MiB (89%)
Writing library : XviD 1.2.1 (UTC 2008-12-04)

Audio
ID : 1
Format : MPEG Audio
Format version : Version 1
Format profile : Layer 3
Mode : Joint stereo
Mode extension : MS Stereo
Codec ID : 55
Codec ID/Hint : MP3
Duration : 43mn 4s
Bit rate mode : Constant
Bit rate : 128 Kbps
Channel(s) : 2 channels
Sampling rate : 48.0 KHz
Compression mode : Lossy
Stream size : 39.4 MiB (10%)
Alignment : Aligned on interleaves
Interleave, duration : 24 ms (0.58 video frame)
Interleave, preload duration : 480 ms

Год выпуска: 2011
Страна: США
Жанр: фантастика, триллер, драма
Продолжительность: 45 мин х 10 серий
Перевод:Профессиональный (многоголосый, закадровый) (LostFilm)
Русские субтитры: нет
Режиссер: Ив Симоно, Дэвид Баррет, Брайан Спайсер
Продюссер: Кэти Гилрой-Серида, Чарльз Мюррэй, Кристин Роум
Сценарий: Кеннет Джонсон, Скотт Питерс, Грегг Харвитц
В ролях: Элизабет Митчелл, Моррис Честнат, Джоэль Гретш, Логан Хаффман, Лора Вандервурт, Морена Баккарин, Скотт Вулф, Кристофер Шайер, Чарльз Межер, Марк Хилдрет, Анна Геллер, Станислав Концевич, Валерий Соловьев, Михаил Хрусталев, Юлия Рудина
Описание: Сегодня весь мир проснулся и увидел, что над каждым городом парят космические корабли. Прибывшие утверждают что пришли с миром, и предлагают подарки в виде медицинских открытий и технологических усовершенствований. Они обещают, что не навредят. Они лгут. Большинство человечества верит, что чужие прибыли как раз тогда, когда мы в них нуждались. Люди с радостью принимают их помощь.

Но во время расследования террористической ячейки агент госбезопасности Эрика Эванс обнаруживает нечто вовсе не безобидное. Когда ее напарник пытается ее убить, Эрика обнаруживает, что пришельцы планируют внедриться в правительства и крупные корпорации, чтобы в будущем захватить все человечество. Но убедить в этом остальных практически невозможно, ведь в руках пришельцев два мощных козыря. Во-первых, они завоевали веру и любовь людей, благодаря своим подаркам. Во-вторых, они взяли под контроль почти всех подростков.

Тысячи подростков, включая сына Эрики, были назначены «послами мира», но на самом деле они шпионят для пришельцев, не подозревая об этом. Эрика вынуждена вступить в движение сопротивления, где она знакомится с Райаном, пришельцем, который хочет спасти человечество. Эрике придется находить равновесие между сопротивлением, работой, и заботой о своем сыне, который принял сторону врагов.
Качество: WEB-DLRip
Формат: AVI
Видео кодек: XviD
Аудио кодек: MP3
Видео: WEB-DLRip, 624х352, 23.976 fps, ~1 121 kbps, 0.213 bit/pixel
Аудио 1: rus - 48 Khz, МР3, 2 ch, 128 kbps
Аудио 2: eng - 48 Khz, МР3, 2 ch, 128 kbps
1. Красный дождь
2. Змеиный зуб
3. Обнажая суть
4. Тёмный альянс
5. Конкордия
6. Осада
7. Муки рождения
8. Мозговой штурм
9. Дьявол в синем платье
10. День матери

















General
Complete name : H:\Ôèëüìû_Ñåðèàëû_Âèäåî\V 1 - LostFilm.TV\V.s01e02.rus.LostFilm.TV.avi
Format : AVI
Format/Info : Audio Video Interleave
File size : 392 MiB
Duration : 43mn 4s
Overall bit rate : 1 272 Kbps
Writing application : Nandub v1.0rc2
Writing library : Nandub build 1852/release

Video
ID : 0
Format : MPEG-4 Visual
Format profile : Advanced Simple@L5
Format settings, BVOP : 1
Format settings, QPel : No
Format settings, GMC : No warppoints
Format settings, Matrix : Custom
Codec ID : XVID
Codec ID/Hint : XviD
Duration : 43mn 4s
Bit rate : 1 131 Kbps
Width : 624 pixels
Height : 352 pixels
Display aspect ratio : 16:9
Frame rate : 23.976 fps
Color space : YUV
Chroma subsampling : 4:2:0
Bit depth : 8 bits
Scan type : Progressive
Compression mode : Lossy
Bits/(Pixel*Frame) : 0.215
Stream size : 349 MiB (89%)
Writing library : XviD 1.2.1 (UTC 2008-12-04)

Audio
ID : 1
Format : MPEG Audio
Format version : Version 1
Format profile : Layer 3
Mode : Joint stereo
Mode extension : MS Stereo
Codec ID : 55
Codec ID/Hint : MP3
Duration : 43mn 4s
Bit rate mode : Constant
Bit rate : 128 Kbps
Channel(s) : 2 channels
Sampling rate : 48.0 KHz
Compression mode : Lossy
Stream size : 39.4 MiB (10%)
Alignment : Aligned on interleaves
Interleave, duration : 24 ms (0.58 video frame)
Interleave, preload duration : 480 ms

pb.wtf



Скачать Визитёры через торрент http://pic.kartinco.top/images/1/44xaep4gki.jpg Скачать фильм Визитёры через торрент бесплантно в хорошем качестве Описание: Сегодня весь мир проснулся и увидел, что над каждым городом парят космические корабли. Прибывшие утверждают что пришли с миром, ... 9.7 10 15
Info! Золотая раздача, скачанное не засчитывается.
Торрент: Зарегистрирован [2012-06-17 22:41] · скачан: 168 раз
Статус: √ проверено
Размер: 9.36 GB
Как cкачать? Как скачать Визитёры через торрент | qTorrent



Последний раз редактировалось: artron2011 (2012-06-20 01:32), всего редактировалось 7 раз(а)

28-11-2019 20:33  

Отключить всю рекламу на сайте

17-06-2012 22:54 Визитёры Скачать торрент  

Прошу перенести раздачу в Зарубежные сериалы.pb.wtf



18-06-2012 05:13 Визитёры Скачать торрент  

классный сериал, жаль закрылиpb.wtf



18-06-2012 05:56 Визитёры Скачать торрент  

Первый сезон больше понравился,второй уже не тоpb.wtf



18-06-2012 17:13 Визитёры Скачать торрент  

Djarkay писал(а):

классный сериал, жаль закрыли

поддерживаю! сериал отличный. И жаль что закрыт :(pb.wtf



18-06-2012 18:51 Визитёры Скачать торрент  

При создании раздач нескольких сезонов - Каждый сезон оформляется отдельно и прячется в спойлер.
Пример оформления - Черная лагуна / El Internado pb.wtf



20-06-2012 01:33 Визитёры Скачать торрент  

wekotila
Ваш совет выполнил. Прошу прощение за задержкуpb.wtf



17-06-2013 14:04 Визитёры Скачать торрент  

скорости маловато чтото жаль(pb.wtf



21-10-2014 10:45 Визитёры Скачать торрент  

раздавать будемpb.wtf



16-02-2015 01:09 Визитёры Скачать торрент  

Раздающий, что бы тебя лицензионщики поймали и прокляли всё твоё семейство!pb.wtf



    Дорогой пользователь! Огромная просьба, поблагодарите релизера, оцените раздачу и оставьте свои комментарий, если Вы скачали Визитёры через торрент бесплатно! Внесите свою лепту в развитие PiratBit!
    Комментировать посты могут только пользователи прошедшие не сложную регистрацию
    Показать сообщения:    

    Визитёры через торрент
    Скачать бесплатно Визитёры
    Визитёры скачать торрент
    Визитёры смотреть онлайн
    Cкачать фильм Визитёры бесплатно
    Визитёры скачать торрент в хорошем качестве
    Визитёры смотреть онлайн бесплатно в хорошем качестве


    Вы не можете начинать темы
    Вы не можете отвечать на сообщения
    Вы не можете редактировать свои сообщения
    Вы не можете удалять свои сообщения
    Вы не можете голосовать в опросах
    Вы не можете прикреплять файлы к сообщениям
    Вы можете скачивать файлы