Ссылка на приватное зеркало всего за 1$. Внимание количество ограничено!!!

iTunes

iTunes

iTunes

1

iTunes

iTunes

iTunes

WEBRip

iTunes

30
pack

$ от Little Big

ВАЖНО

!!Акция!!

Alien_RageХит недели

RePack

Resident Evil 21

ИГРА 18+

pack

RePack

jed

!!Акция!!

Alien_Rage

RePack

fifa19

RePack

Assassins Creed: Odyssey

RePack

NEED FOR SPEED™ PAYBACK

4 сезон

9 сезон

Бесстыжие 9 сезон

Все сериалы

все сериалы на PB.wtf

RePack

FAR CRY 5
  

Тайна «Волчьей пасти» (Алла Сурикова) [2004 г., приключения, семейный, DVDRip] pb.wtf

Тайна «Волчьей пасти» через торрент pb.wtf

Размер: 1.37 GB | Добавлен: 8 лет 1 мес. назад | Торрент скачан:24 раза
Скачать  

18-06-2012 11:24 Тайна «Волчьей пасти» Скачать торрент  

Тайна «Волчьей пасти»

Год выпуска: 2004
Страна: Россия
Жанр: приключения, семейный
Продолжительность: 01:33:30
Перевод: Не требуется

Режиссер: Алла Сурикова
Продюссер: Лариса Бланк

IMDB


В ролях: Михаил Пореченков, Анна Михалкова, Николай Караченцов, Алексей Булдаков, Александр Мохов, Елена Яковлева, Руслана Рухадзе, Григорий Калинин, Алексей Горбунов, Анатолий Бобер

Описание: Герой фильма — 12-летний мальчик Витя Олушев — приезжает вместе с мамой и папой в гарнизон морской пехоты. Папа специалист по борьбе с терроризмом, мама капитан медицинской службы. И пока родители служат, сын осваивает пространство и постигает со своими гарнизонными друзьями школу мужества. Здесь и межнациональные разборки на уровне русских и украинских мальчишек, и террористы, и даже первая любовь…

Качество: DVDRip
Формат: AVI
Видео кодек: XviD
Аудио кодек: AC3
Видео: 720x544 (1.32:1), 25 fps, XviD Final 1.0.1 (build 35) ~1699 kbps avg, 0.17 bit/pixel
Аудио#1: Русский: 48 kHz, AC3 Dolby Digital, 3/2 (L,C,R,l,r) + LFE ch, ~384.00 kbps avg



Общее
Полное имя : F:\Закачки\Taina.Volchej.Pasti.2004.DVDRip.avi
Формат : AVI
Формат/Информация : Audio Video Interleave
Размер файла : 1,37 Гбайт
Продолжительность : 1 ч. 33 м.
Общий поток : 2090 Кбит/сек
Программа кодирования : VirtualDubMod 1.5.4.1 (build 2178/release)
Библиотека кодирования : VirtualDubMod build 2178/release

Видео
Идентификатор : 0
Формат : MPEG-4 Visual
Профиль формата : Simple@L3
Параметр BVOP формата : 1
Параметр QPel формата : Нет
Параметр GMC формата : Без точки перехода
Параметр матрицы формата : Выборочная
Идентификатор кодека : XVID
Идентификатор кодека/Подсказка : XviD
Продолжительность : 1 ч. 33 м.
Битрейт : 1699 Кбит/сек
Ширина : 720 пикселей
Высота : 544 пикселя
Соотношение сторон : 4:3
Частота кадров : 25,000 кадров/сек
Цветовое пространство : YUV
Субдискретизация насыщенности : 4:2:0
Битовая глубина : 8 бит
Тип развёртки : Прогрессивная
Метод сжатия : С потерями
Бит/(Пиксели*Кадры) : 0.174
Размер потока : 1,11 Гбайт (81%)
Библиотека кодирования : XviD 1.0.1 (UTC 2004-06-05)

Аудио
Идентификатор : 1
Формат : AC-3
Формат/Информация : Audio Coding 3
Расширение режима : CM (complete main)
Параметр Endianness формата : Big
Идентификатор кодека : 2000
Продолжительность : 1 ч. 33 м.
Вид битрейта : Постоянный
Битрейт : 384 Кбит/сек
Каналы : 6 каналов
Расположение каналов : Front: L C R, Side: L R, LFE
Частота : 48,0 КГц
Битовая глубина : 16 бит
Метод сжатия : С потерями
Размер потока : 257 Мбайт (18%)
Выравнивание : Разделение по промежуткам
Продолжительность промежутка : 96 мс. (2,40 видеокадра)
Время предзагрузки промежутка : 96 мс.
Язык : Russian

pb.wtf



Скачать Тайна «Волчьей пасти» через торрент http://i39.fastpic.ru/big/2012/0618/da/19382de1cf53fd7d12dcf26569a6a7da.jpg Скачать фильм Тайна «Волчьей пасти» через торрент бесплантно в хорошем качестве Описание: Герой фильма — 12-летний мальчик Витя Олушев — приезжает вместе с мамой и папой в гарнизон морской пехоты. Папа специалист по ... 3.5 10 2
Info! Золотая раздача, скачанное не засчитывается.
Торрент: Зарегистрирован [2012-06-18 11:24] · скачан: 24 раз
Статус: √ проверено
Размер: 1.37 GB
Как cкачать? Как скачать Тайна «Волчьей пасти» через торрент | qTorrent

28-11-2019 20:33  

Отключить всю рекламу на сайте

    Дорогой пользователь! Огромная просьба, поблагодарите релизера, оцените раздачу и оставьте свои комментарий, если Вы скачали Тайна «Волчьей пасти» через торрент бесплатно! Внесите свою лепту в развитие PiratBit!
    Комментировать посты могут только пользователи прошедшие не сложную регистрацию
    Показать сообщения:    

    Тайна «Волчьей пасти» через торрент
    Скачать бесплатно Тайна «Волчьей пасти»
    Тайна «Волчьей пасти» скачать торрент
    Тайна «Волчьей пасти» смотреть онлайн
    Cкачать фильм Тайна «Волчьей пасти» бесплатно
    Тайна «Волчьей пасти» скачать торрент в хорошем качестве
    Тайна «Волчьей пасти» смотреть онлайн бесплатно в хорошем качестве


    Вы не можете начинать темы
    Вы не можете отвечать на сообщения
    Вы не можете редактировать свои сообщения
    Вы не можете удалять свои сообщения
    Вы не можете голосовать в опросах
    Вы не можете прикреплять файлы к сообщениям
    Вы можете скачивать файлы