1 сезон

3 сезон

iTunes

1

iTunes

MVO

iTunes

13

1 сезон

RePack

30

Deluxe

pack

Лицензия

ВАЖНО

ИГРА 18+

pack

RePack

MK11

RePack

jed

RePack

fifa19

RePack

RDR2

RePack

NEED FOR SPEED™ PAYBACK

4 сезон

9 сезон

Бесстыжие 9 сезон

Все сериалы

все сериалы на PB.wtf

RePack

FAR CRY 5

Anonymous, добрый день, мы катастрофически не успеваем собрать деньги на оплату серверов, помогите нам пожалуйста 5,10,15р., для нас важна любая помощь . В качестве благодарности мы отключим Вам всю рекламу на сайте (укажите свой ник в строку Ваше имя)!

×
  
Magnet ссылка

В доме отца / Casa de mi Padre (Мэтт Пидмонт) [2012 г., комедия, DVD5, DUB (лицензия)] pb.wtf

В доме отца через торрент pb.wtf

Размер: 4.36 GB | Добавлен: 9 лет 1 мес. назад | Торрент скачан:65 раз
Скачать  

19-06-2012 15:22 В доме отца Скачать торрент  

В доме отца / Casa de mi Padre
«Funniest movie you'll ever read.»

Год выпуска: 2012
Страна: США
Жанр: комедия
Продолжительность: 01:20:48
Перевод: Дубляж (Лицензия)

Режиссер: Мэтт Пидмонт
Продюссер: Эмилио Диез Барросо, Джессика Элбаум, Уилл Феррелл
Сценарий: Эндрю Стил

Бюджет: $6 000 000





В ролях: Уилл Феррелл, Гаэль Гарсия Берналь, Диего Луна, Педро Армендарис мл., Генезис Родригез, Эфрен Рамирез, Адриан Мартинез, Мэнюель Уррего, Ник Офферман, Джерри Коллинз, Даниил Эльдаров, Диомид Виноградов

Описание: Армандо Альварес обычный парень, не особо видавший жизнь. Да и как насладиться ею, когда он вынужден проводить все своё время на ранчо своего отца. Да все осложняется еще и тем, что он английского не знает. И это просто катастрофа для человека, который не может покинуть родную Мексику, чтоб на некоторое время вдохнуть свежий воздух свободы. А тут еще их семейный бизнес не заладился на ранчо, возникли финансовые трудности, отцу срочно требуется немалая сумма денег. И в этот момент, словно спаситель, приезжает его брат Армандо Рауль со своей новой невестой. А у него все хорошо, он очень успешный, умеет вести свой бизнес, да и долг отца обещает погасить. Но…

Качество: DVD5
Формат: DVD Video
Видео кодек: MPEG2
Аудио кодек: AC3
Видео: Mpeg 2,PAL 16:9 (720x576),~5031 Кбит/сек , 25 000 fps
Аудио#1: Dolby AC3, 6 ch, 384 kb/s, 48.0 KHz[Russian]
Аудио#2: Dolby AC3, 6 ch, 192 kb/s, 48.0 KHz [Spanish]
Аудио#3: Dolby AC3, 2 ch, 384 kb/s, 48.0 KHz [Russian]











Общее
Полное имя : C:\Закачки\V.dome.otca.2012.D.DVD\VIDEO_TS\VTS_01_1.VOB
Формат : MPEG-PS
Размер файла : 1024 Мбайт
Продолжительность : 23 м.
Общий поток : 6113 Кбит/сек

Видео
Идентификатор : 224 (0xE0)
Формат : MPEG Video
Версия формата : Version 2
Профиль формата : Main@Main
Параметр BVOP формата : Да
Параметр матрицы формата : Выборочная
Продолжительность : 23 м.
Битрейт : 5031 Кбит/сек
Максимальный битрейт : 6000 Кбит/сек
Ширина : 720 пикселей
Высота : 576 пикселей
Соотношение сторон : 16:9
Частота кадров : 25,000 кадров/сек
Стандарт вещания : PAL
Цветовое пространство : YUV
Субдискретизация насыщенности : 4:2:0
Битовая глубина : 8 бит
Тип развёртки : Чересстрочная
Порядок развёртки : Нижнее поле первое
Метод сжатия : С потерями
Бит/(Пиксели*Кадры) : 0.485
Размер потока : 843 Мбайт (82%)

Аудио #1
Идентификатор : 189 (0xBD)-128 (0x80)
Формат : AC-3
Формат/Информация : Audio Coding 3
Расширение режима : CM (complete main)
Параметр Endianness формата : Big
Режим смешивания : DVD-Video
Продолжительность : 23 м.
Вид битрейта : Постоянный
Битрейт : 384 Кбит/сек
Каналы : 6 каналов
Расположение каналов : Front: L C R, Side: L R, LFE
Частота : 48,0 КГц
Битовая глубина : 16 бит
Метод сжатия : С потерями
Размер потока : 64,3 Мбайт (6%)

Аудио #2
Идентификатор : 189 (0xBD)-129 (0x81)
Формат : AC-3
Формат/Информация : Audio Coding 3
Расширение режима : CM (complete main)
Параметр Endianness формата : Big
Режим смешивания : DVD-Video
Продолжительность : 23 м.
Вид битрейта : Постоянный
Битрейт : 192 Кбит/сек
Каналы : 2 канала
Расположение каналов : Front: L R
Частота : 48,0 КГц
Битовая глубина : 16 бит
Метод сжатия : С потерями
Размер потока : 32,2 Мбайт (3%)

Аудио #3
Идентификатор : 189 (0xBD)-130 (0x82)
Формат : AC-3
Формат/Информация : Audio Coding 3
Расширение режима : CM (complete main)
Параметр Endianness формата : Big
Режим смешивания : DVD-Video
Продолжительность : 23 м.
Вид битрейта : Постоянный
Битрейт : 384 Кбит/сек
Каналы : 6 каналов
Расположение каналов : Front: L C R, Side: L R, LFE
Частота : 48,0 КГц
Битовая глубина : 16 бит
Метод сжатия : С потерями
Размер потока : 64,3 Мбайт (6%)

Текст
Идентификатор : 189 (0xBD)-32 (0x20)
Формат : RLE
Формат/Информация : Run-length encoding
Режим смешивания : DVD-Video
Продолжительность : 23 м.

Меню

Общее
Полное имя : C:\Закачки\V.dome.otca.2012.D.DVD\VIDEO_TS\VTS_01_2.VOB
Формат : MPEG-PS
Размер файла : 1024 Мбайт
Продолжительность : 23 м.
Общий поток : 6110 Кбит/сек

Видео
Идентификатор : 224 (0xE0)
Формат : MPEG Video
Версия формата : Version 2
Профиль формата : Main@Main
Параметр BVOP формата : Да
Параметр матрицы формата : Выборочная
Параметр GOP формата : M=3, N=15
Продолжительность : 23 м.
Битрейт : 5028 Кбит/сек
Максимальный битрейт : 8000 Кбит/сек
Ширина : 720 пикселей
Высота : 576 пикселей
Соотношение сторон : 16:9
Частота кадров : 25,000 кадров/сек
Стандарт вещания : PAL
Цветовое пространство : YUV
Субдискретизация насыщенности : 4:2:0
Битовая глубина : 8 бит
Тип развёртки : Чересстрочная
Порядок развёртки : Верхнее поле первое
Метод сжатия : С потерями
Бит/(Пиксели*Кадры) : 0.485
Размер потока : 842 Мбайт (82%)

Аудио #1
Идентификатор : 189 (0xBD)-128 (0x80)
Формат : AC-3
Формат/Информация : Audio Coding 3
Расширение режима : CM (complete main)
Параметр Endianness формата : Big
Режим смешивания : DVD-Video
Продолжительность : 23 м.
Вид битрейта : Постоянный
Битрейт : 384 Кбит/сек
Каналы : 6 каналов
Расположение каналов : Front: L C R, Side: L R, LFE
Частота : 48,0 КГц
Битовая глубина : 16 бит
Метод сжатия : С потерями
Задержка видео : -704 мс.
Размер потока : 64,4 Мбайт (6%)

Аудио #2
Идентификатор : 189 (0xBD)-129 (0x81)
Формат : AC-3
Формат/Информация : Audio Coding 3
Расширение режима : CM (complete main)
Параметр Endianness формата : Big
Режим смешивания : DVD-Video
Продолжительность : 23 м.
Вид битрейта : Постоянный
Битрейт : 192 Кбит/сек
Каналы : 2 канала
Расположение каналов : Front: L R
Частота : 48,0 КГц
Битовая глубина : 16 бит
Метод сжатия : С потерями
Задержка видео : -608 мс.
Размер потока : 32,2 Мбайт (3%)

Аудио #3
Идентификатор : 189 (0xBD)-130 (0x82)
Формат : AC-3
Формат/Информация : Audio Coding 3
Расширение режима : CM (complete main)
Параметр Endianness формата : Big
Режим смешивания : DVD-Video
Продолжительность : 23 м.
Вид битрейта : Постоянный
Битрейт : 384 Кбит/сек
Каналы : 6 каналов
Расположение каналов : Front: L C R, Side: L R, LFE
Частота : 48,0 КГц
Битовая глубина : 16 бит
Метод сжатия : С потерями
Задержка видео : -704 мс.
Размер потока : 64,4 Мбайт (6%)

Текст
Идентификатор : 189 (0xBD)-32 (0x20)
Формат : RLE
Формат/Информация : Run-length encoding
Режим смешивания : DVD-Video
Продолжительность : 23 м.
Задержка видео : 2 с. 80 мс.

Меню

Общее
Полное имя : C:\Закачки\V.dome.otca.2012.D.DVD\VIDEO_TS\VTS_01_3.VOB
Формат : MPEG-PS
Размер файла : 1024 Мбайт
Продолжительность : 23 м.
Общий поток : 6049 Кбит/сек

Видео
Идентификатор : 224 (0xE0)
Формат : MPEG Video
Версия формата : Version 2
Профиль формата : Main@Main
Параметр BVOP формата : Да
Параметр матрицы формата : Выборочная
Параметр GOP формата : M=3, N=15
Продолжительность : 23 м.
Битрейт : 4968 Кбит/сек
Максимальный битрейт : 8000 Кбит/сек
Ширина : 720 пикселей
Высота : 576 пикселей
Соотношение сторон : 16:9
Частота кадров : 25,000 кадров/сек
Стандарт вещания : PAL
Цветовое пространство : YUV
Субдискретизация насыщенности : 4:2:0
Битовая глубина : 8 бит
Тип развёртки : Чересстрочная
Порядок развёртки : Верхнее поле первое
Метод сжатия : С потерями
Бит/(Пиксели*Кадры) : 0.479
Размер потока : 841 Мбайт (82%)

Аудио #1
Идентификатор : 189 (0xBD)-128 (0x80)
Формат : AC-3
Формат/Информация : Audio Coding 3
Расширение режима : CM (complete main)
Параметр Endianness формата : Big
Режим смешивания : DVD-Video
Продолжительность : 23 м.
Вид битрейта : Постоянный
Битрейт : 384 Кбит/сек
Каналы : 6 каналов
Расположение каналов : Front: L C R, Side: L R, LFE
Частота : 48,0 КГц
Битовая глубина : 16 бит
Метод сжатия : С потерями
Задержка видео : -544 мс.
Размер потока : 65,0 Мбайт (6%)

Аудио #2
Идентификатор : 189 (0xBD)-129 (0x81)
Формат : AC-3
Формат/Информация : Audio Coding 3
Расширение режима : CM (complete main)
Параметр Endianness формата : Big
Режим смешивания : DVD-Video
Продолжительность : 23 м.
Вид битрейта : Постоянный
Битрейт : 192 Кбит/сек
Каналы : 2 канала
Расположение каналов : Front: L R
Частота : 48,0 КГц
Битовая глубина : 16 бит
Метод сжатия : С потерями
Задержка видео : -512 мс.
Размер потока : 32,5 Мбайт (3%)

Аудио #3
Идентификатор : 189 (0xBD)-130 (0x82)
Формат : AC-3
Формат/Информация : Audio Coding 3
Расширение режима : CM (complete main)
Параметр Endianness формата : Big
Режим смешивания : DVD-Video
Продолжительность : 23 м.
Вид битрейта : Постоянный
Битрейт : 384 Кбит/сек
Каналы : 6 каналов
Расположение каналов : Front: L C R, Side: L R, LFE
Частота : 48,0 КГц
Битовая глубина : 16 бит
Метод сжатия : С потерями
Задержка видео : -544 мс.
Размер потока : 65,0 Мбайт (6%)

Текст
Идентификатор : 189 (0xBD)-32 (0x20)
Формат : RLE
Формат/Информация : Run-length encoding
Режим смешивания : DVD-Video

Меню

Общее
Полное имя : C:\Закачки\V.dome.otca.2012.D.DVD\VIDEO_TS\VTS_01_4.VOB
Формат : MPEG-PS
Размер файла : 465 Мбайт
Продолжительность : 10 м.
Общий поток : 6310 Кбит/сек

Видео
Идентификатор : 224 (0xE0)
Формат : MPEG Video
Версия формата : Version 2
Профиль формата : Main@Main
Параметр BVOP формата : Да
Параметр матрицы формата : Выборочная
Продолжительность : 10 м.
Битрейт : 5225 Кбит/сек
Максимальный битрейт : 8000 Кбит/сек
Ширина : 720 пикселей
Высота : 576 пикселей
Соотношение сторон : 16:9
Частота кадров : 25,000 кадров/сек
Стандарт вещания : PAL
Цветовое пространство : YUV
Субдискретизация насыщенности : 4:2:0
Битовая глубина : 8 бит
Тип развёртки : Чересстрочная
Порядок развёртки : Верхнее поле первое
Метод сжатия : С потерями
Бит/(Пиксели*Кадры) : 0.504
Размер потока : 384 Мбайт (83%)

Аудио #1
Идентификатор : 189 (0xBD)-128 (0x80)
Формат : AC-3
Формат/Информация : Audio Coding 3
Расширение режима : CM (complete main)
Параметр Endianness формата : Big
Режим смешивания : DVD-Video
Продолжительность : 10 м.
Вид битрейта : Постоянный
Битрейт : 384 Кбит/сек
Каналы : 6 каналов
Расположение каналов : Front: L C R, Side: L R, LFE
Частота : 48,0 КГц
Битовая глубина : 16 бит
Метод сжатия : С потерями
Задержка видео : -656 мс.
Размер потока : 28,3 Мбайт (6%)

Аудио #2
Идентификатор : 189 (0xBD)-129 (0x81)
Формат : AC-3
Формат/Информация : Audio Coding 3
Расширение режима : CM (complete main)
Параметр Endianness формата : Big
Режим смешивания : DVD-Video
Продолжительность : 10 м.
Вид битрейта : Постоянный
Битрейт : 192 Кбит/сек
Каналы : 2 канала
Расположение каналов : Front: L R
Частота : 48,0 КГц
Битовая глубина : 16 бит
Метод сжатия : С потерями
Задержка видео : -592 мс.
Размер потока : 14,1 Мбайт (3%)

Аудио #3
Идентификатор : 189 (0xBD)-130 (0x82)
Формат : AC-3
Формат/Информация : Audio Coding 3
Расширение режима : CM (complete main)
Параметр Endianness формата : Big
Режим смешивания : DVD-Video
Продолжительность : 10 м.
Вид битрейта : Постоянный
Битрейт : 384 Кбит/сек
Каналы : 6 каналов
Расположение каналов : Front: L C R, Side: L R, LFE
Частота : 48,0 КГц
Битовая глубина : 16 бит
Метод сжатия : С потерями
Задержка видео : -656 мс.
Размер потока : 28,3 Мбайт (6%)

Текст
Идентификатор : 189 (0xBD)-32 (0x20)
Формат : RLE
Формат/Информация : Run-length encoding
Режим смешивания : DVD-Video

Меню

Общее
Полное имя : C:\Закачки\V.dome.otca.2012.D.DVD\VIDEO_TS\VTS_02_0.BUP
Формат : DVD Video
Профиль формата : Program
Размер файла : 12,0 Кбайт
Продолжительность : 11 с.
Режим общего битрейта : Переменный
Общий поток : 8474 бит/сек

Видео
Идентификатор : 224 (0xE0)
Формат : MPEG Video
Версия формата : Version 2
Продолжительность : 11 с.
Вид битрейта : Переменный
Ширина : 720 пикселей
Высота : 576 пикселей
Соотношение сторон : 16:9
Частота кадров : 25,000 кадров/сек
Стандарт вещания : PAL
Метод сжатия : С потерями

Аудио
Идентификатор : 128 (0x80)
Формат : AC-3
Формат/Информация : Audio Coding 3
Продолжительность : 11 с.
Каналы : 2 канала
Частота : 48,0 КГц
Метод сжатия : С потерями
Язык : Russian

Меню #1
Продолжительность : 1 с. 600 мс.
00:00:00.000 : Chapter 1
List (Audio) : 0

Меню #2
Продолжительность : 11 с.
00:00:00.000 : Chapter 1
00:00:01.600 : Chapter 2
List (Audio) : 0

Меню #3
Продолжительность : 1 с. 600 мс.
00:00:00.000 : Chapter 1
List (Audio) : 0

Меню #4

Общее
Полное имя : C:\Закачки\V.dome.otca.2012.D.DVD\VIDEO_TS\VTS_02_0.IFO
Формат : DVD Video
Профиль формата : Program
Размер файла : 12,0 Кбайт
Продолжительность : 11 с.
Режим общего битрейта : Переменный
Общий поток : 8474 бит/сек

Видео
Идентификатор : 224 (0xE0)
Формат : MPEG Video
Версия формата : Version 2
Продолжительность : 11 с.
Вид битрейта : Переменный
Ширина : 720 пикселей
Высота : 576 пикселей
Соотношение сторон : 16:9
Частота кадров : 25,000 кадров/сек
Стандарт вещания : PAL
Метод сжатия : С потерями

Аудио
Идентификатор : 128 (0x80)
Формат : AC-3
Формат/Информация : Audio Coding 3
Продолжительность : 11 с.
Каналы : 2 канала
Частота : 48,0 КГц
Метод сжатия : С потерями
Язык : Russian

Меню #1
Продолжительность : 1 с. 600 мс.
00:00:00.000 : Chapter 1
List (Audio) : 0

Меню #2
Продолжительность : 11 с.
00:00:00.000 : Chapter 1
00:00:01.600 : Chapter 2
List (Audio) : 0

Меню #3
Продолжительность : 1 с. 600 мс.
00:00:00.000 : Chapter 1
List (Audio) : 0

Меню #4

Общее
Полное имя : C:\Закачки\V.dome.otca.2012.D.DVD\VIDEO_TS\VTS_02_1.VOB
Формат : MPEG-PS
Размер файла : 1,36 Мбайт
Продолжительность : 1 с. 680 мс.
Общий поток : 6768 Кбит/сек

Видео
Идентификатор : 224 (0xE0)
Формат : MPEG Video
Версия формата : Version 2
Профиль формата : Main@Main
Параметр BVOP формата : Да
Параметр матрицы формата : Выборочная
Продолжительность : 1 с. 680 мс.
Битрейт : 6441 Кбит/сек
Максимальный битрейт : 6000 Кбит/сек
Ширина : 720 пикселей
Высота : 576 пикселей
Соотношение сторон : 16:9
Частота кадров : 25,000 кадров/сек
Стандарт вещания : PAL
Цветовое пространство : YUV
Субдискретизация насыщенности : 4:2:0
Битовая глубина : 8 бит
Тип развёртки : Чересстрочная
Порядок развёртки : Нижнее поле первое
Метод сжатия : С потерями
Бит/(Пиксели*Кадры) : 0.621
Размер потока : 1,29 Мбайт (95%)

Аудио
Идентификатор : 189 (0xBD)-128 (0x80)
Формат : AC-3
Формат/Информация : Audio Coding 3
Расширение режима : CM (complete main)
Параметр Endianness формата : Big
Режим смешивания : DVD-Video
Продолжительность : 1 с. 568 мс.
Вид битрейта : Постоянный
Битрейт : 192 Кбит/сек
Каналы : 2 канала
Расположение каналов : Front: L R
Частота : 48,0 КГц
Битовая глубина : 16 бит
Метод сжатия : С потерями
Размер потока : 36,8 Кбайт (3%)

Меню

Общее
Полное имя : C:\Закачки\V.dome.otca.2012.D.DVD\VIDEO_TS\VTS_03_0.BUP
Формат : DVD Video
Профиль формата : Program
Размер файла : 12,0 Кбайт
Продолжительность : 17 с.
Режим общего битрейта : Переменный
Общий поток : 5585 бит/сек

Видео
Идентификатор : 224 (0xE0)
Формат : MPEG Video
Версия формата : Version 2
Продолжительность : 17 с.
Вид битрейта : Переменный
Ширина : 720 пикселей
Высота : 576 пикселей
Соотношение сторон : 16:9
Частота кадров : 25,000 кадров/сек
Стандарт вещания : PAL
Метод сжатия : С потерями

Аудио
Идентификатор : 128 (0x80)
Формат : AC-3
Формат/Информация : Audio Coding 3
Продолжительность : 17 с.
Каналы : 2 канала
Частота : 48,0 КГц
Метод сжатия : С потерями
Язык : Russian

Меню #1
Продолжительность : 1 с. 600 мс.
00:00:00.000 : Chapter 1
List (Audio) : 0

Меню #2
Продолжительность : 17 с.
00:00:00.000 : Chapter 1
00:00:16.000 : Chapter 2
List (Audio) : 0

Меню #3
Продолжительность : 1 с. 600 мс.
00:00:00.000 : Chapter 1
List (Audio) : 0

Меню #4

Общее
Полное имя : C:\Закачки\V.dome.otca.2012.D.DVD\VIDEO_TS\VTS_03_0.IFO
Формат : DVD Video
Профиль формата : Program
Размер файла : 12,0 Кбайт
Продолжительность : 17 с.
Режим общего битрейта : Переменный
Общий поток : 5585 бит/сек

Видео
Идентификатор : 224 (0xE0)
Формат : MPEG Video
Версия формата : Version 2
Продолжительность : 17 с.
Вид битрейта : Переменный
Ширина : 720 пикселей
Высота : 576 пикселей
Соотношение сторон : 16:9
Частота кадров : 25,000 кадров/сек
Стандарт вещания : PAL
Метод сжатия : С потерями

Аудио
Идентификатор : 128 (0x80)
Формат : AC-3
Формат/Информация : Audio Coding 3
Продолжительность : 17 с.
Каналы : 2 канала
Частота : 48,0 КГц
Метод сжатия : С потерями
Язык : Russian

Меню #1
Продолжительность : 1 с. 600 мс.
00:00:00.000 : Chapter 1
List (Audio) : 0

Меню #2
Продолжительность : 17 с.
00:00:00.000 : Chapter 1
00:00:16.000 : Chapter 2
List (Audio) : 0

Меню #3
Продолжительность : 1 с. 600 мс.
00:00:00.000 : Chapter 1
List (Audio) : 0

Меню #4

Общее
Полное имя : C:\Закачки\V.dome.otca.2012.D.DVD\VIDEO_TS\VTS_03_1.VOB
Формат : MPEG-PS
Размер файла : 12,8 Мбайт
Продолжительность : 16 с.
Общий поток : 6708 Кбит/сек

Видео
Идентификатор : 224 (0xE0)
Формат : MPEG Video
Версия формата : Version 2
Профиль формата : Main@Main
Параметр BVOP формата : Да
Параметр матрицы формата : Выборочная
Продолжительность : 16 с.
Битрейт : 6383 Кбит/сек
Максимальный битрейт : 6000 Кбит/сек
Ширина : 720 пикселей
Высота : 576 пикселей
Соотношение сторон : 16:9
Частота кадров : 25,000 кадров/сек
Стандарт вещания : PAL
Цветовое пространство : YUV
Субдискретизация насыщенности : 4:2:0
Битовая глубина : 8 бит
Тип развёртки : Чересстрочная
Порядок развёртки : Нижнее поле первое
Метод сжатия : С потерями
Бит/(Пиксели*Кадры) : 0.616
Размер потока : 12,2 Мбайт (95%)

Аудио
Идентификатор : 189 (0xBD)-128 (0x80)
Формат : AC-3
Формат/Информация : Audio Coding 3
Расширение режима : CM (complete main)
Параметр Endianness формата : Big
Режим смешивания : DVD-Video
Продолжительность : 1 с. 568 мс.
Вид битрейта : Постоянный
Битрейт : 192 Кбит/сек
Каналы : 2 канала
Расположение каналов : Front: L R
Частота : 48,0 КГц
Битовая глубина : 16 бит
Метод сжатия : С потерями
Размер потока : 36,8 Кбайт (0%)

Меню

Общее
Полное имя : C:\Закачки\V.dome.otca.2012.D.DVD\VIDEO_TS\VTS_04_0.BUP
Формат : DVD Video
Профиль формата : Program
Размер файла : 28,0 Кбайт
Продолжительность : 23 м.
Режим общего битрейта : Переменный
Общий поток : 160 бит/сек

Видео
Идентификатор : 224 (0xE0)
Формат : MPEG Video
Версия формата : Version 2
Продолжительность : 23 м.
Вид битрейта : Переменный
Ширина : 720 пикселей
Высота : 576 пикселей
Соотношение сторон : 16:9
Частота кадров : 25,000 кадров/сек
Стандарт вещания : PAL
Метод сжатия : С потерями

Аудио
Идентификатор : 128 (0x80)
Формат : AC-3
Формат/Информация : Audio Coding 3
Продолжительность : 23 м.
Каналы : 2 канала
Частота : 48,0 КГц
Метод сжатия : С потерями
Язык : Russian

Меню #1
Продолжительность : 1 с. 600 мс.
00:00:00.000 : Chapter 1
List (Audio) : 0

Меню #2
Продолжительность : 23 м.
00:00:00.000 : Chapter 1
00:00:01.000 : Chapter 2
00:00:04.000 : Chapter 3
00:00:06.000 : Chapter 4
00:00:35.000 : Chapter 5
00:00:39.000 : Chapter 6
00:00:40.680 : Chapter 7
00:01:16.680 : Chapter 8
00:01:25.680 : Chapter 9
00:01:46.680 : Chapter 10
00:01:47.760 : Chapter 11
00:02:15.760 : Chapter 12
00:02:31.760 : Chapter 13
List (Audio) : 0

Общее
Полное имя : C:\Закачки\V.dome.otca.2012.D.DVD\VIDEO_TS\VTS_04_0.IFO
Формат : DVD Video
Профиль формата : Program
Размер файла : 28,0 Кбайт
Продолжительность : 23 м.
Режим общего битрейта : Переменный
Общий поток : 160 бит/сек

Видео
Идентификатор : 224 (0xE0)
Формат : MPEG Video
Версия формата : Version 2
Продолжительность : 23 м.
Вид битрейта : Переменный
Ширина : 720 пикселей
Высота : 576 пикселей
Соотношение сторон : 16:9
Частота кадров : 25,000 кадров/сек
Стандарт вещания : PAL
Метод сжатия : С потерями

Аудио
Идентификатор : 128 (0x80)
Формат : AC-3
Формат/Информация : Audio Coding 3
Продолжительность : 23 м.
Каналы : 2 канала
Частота : 48,0 КГц
Метод сжатия : С потерями
Язык : Russian

Меню #1
Продолжительность : 1 с. 600 мс.
00:00:00.000 : Chapter 1
List (Audio) : 0

Меню #2
Продолжительность : 23 м.
00:00:00.000 : Chapter 1
00:00:01.000 : Chapter 2
00:00:04.000 : Chapter 3
00:00:06.000 : Chapter 4
00:00:35.000 : Chapter 5
00:00:39.000 : Chapter 6
00:00:40.680 : Chapter 7
00:01:16.680 : Chapter 8
00:01:25.680 : Chapter 9
00:01:46.680 : Chapter 10
00:01:47.760 : Chapter 11
00:02:15.760 : Chapter 12
00:02:31.760 : Chapter 13
List (Audio) : 0

Общее
Полное имя : C:\Закачки\V.dome.otca.2012.D.DVD\VIDEO_TS\VTS_04_1.VOB
Формат : MPEG-PS
Размер файла : 838 Мбайт
Продолжительность : 2 м. 14 с.
Общий поток : 52,1 Мбит/сек

Видео
Идентификатор : 224 (0xE0)
Формат : MPEG Video
Версия формата : Version 2
Профиль формата : Main@Main
Параметр BVOP формата : Да
Параметр матрицы формата : Выборочная
Продолжительность : 2 м. 14 с.
Битрейт : 50,9 Мбит/сек
Максимальный битрейт : 6000 Кбит/сек
Ширина : 720 пикселей
Высота : 576 пикселей
Соотношение сторон : 16:9
Частота кадров : 25,000 кадров/сек
Стандарт вещания : PAL
Цветовое пространство : YUV
Субдискретизация насыщенности : 4:2:0
Битовая глубина : 8 бит
Тип развёртки : Чересстрочная
Порядок развёртки : Нижнее поле первое
Метод сжатия : С потерями
Бит/(Пиксели*Кадры) : 4.910
Размер потока : 819 Мбайт (98%)

Аудио
Идентификатор : 189 (0xBD)-128 (0x80)
Формат : AC-3
Формат/Информация : Audio Coding 3
Расширение режима : CM (complete main)
Параметр Endianness формата : Big
Режим смешивания : DVD-Video
Продолжительность : 1 с. 568 мс.
Вид битрейта : Постоянный
Битрейт : 192 Кбит/сек
Каналы : 2 канала
Расположение каналов : Front: L R
Частота : 48,0 КГц
Битовая глубина : 16 бит
Метод сжатия : С потерями
Размер потока : 36,8 Кбайт (0%)

Меню

Общее
Полное имя : C:\Закачки\V.dome.otca.2012.D.DVD\VIDEO_TS\VIDEO_TS.BUP
Формат : DVD Video
Профиль формата : Menu
Размер файла : 10,0 Кбайт
Режим общего битрейта : Переменный

Видео
Идентификатор : 224 (0xE0)
Формат : MPEG Video
Версия формата : Version 1
Вид битрейта : Переменный
Ширина : 720 пикселей
Высота : 480 пикселей
Соотношение сторон : 4:3
Частота кадров : 29,970 кадров/сек
Стандарт вещания : NTSC
Метод сжатия : С потерями

Общее
Полное имя : C:\Закачки\V.dome.otca.2012.D.DVD\VIDEO_TS\VIDEO_TS.IFO
Формат : DVD Video
Профиль формата : Menu
Размер файла : 10,0 Кбайт
Режим общего битрейта : Переменный

Видео
Идентификатор : 224 (0xE0)
Формат : MPEG Video
Версия формата : Version 1
Вид битрейта : Переменный
Ширина : 720 пикселей
Высота : 480 пикселей
Соотношение сторон : 4:3
Частота кадров : 29,970 кадров/сек
Стандарт вещания : NTSC
Метод сжатия : С потерями

Общее
Полное имя : C:\Закачки\V.dome.otca.2012.D.DVD\VIDEO_TS\VTS_01_0.BUP
Формат : DVD Video
Профиль формата : Program
Размер файла : 58,0 Кбайт
Продолжительность : 1 ч. 20 м.
Режим общего битрейта : Переменный
Общий поток : 98 бит/сек

Видео
Идентификатор : 224 (0xE0)
Формат : MPEG Video
Версия формата : Version 2
Продолжительность : 1 ч. 20 м.
Вид битрейта : Переменный
Ширина : 720 пикселей
Высота : 576 пикселей
Соотношение сторон : 16:9
Частота кадров : 25,000 кадров/сек
Стандарт вещания : PAL
Метод сжатия : С потерями

Аудио #1
Идентификатор : 128 (0x80)
Формат : AC-3
Формат/Информация : Audio Coding 3
Продолжительность : 1 ч. 20 м.
Каналы : 6 каналов
Частота : 48,0 КГц
Метод сжатия : С потерями
Язык : Russian

Аудио #2
Идентификатор : 129 (0x81)
Формат : AC-3
Формат/Информация : Audio Coding 3
Продолжительность : 1 ч. 20 м.
Каналы : 2 канала
Частота : 48,0 КГц
Метод сжатия : С потерями
Язык : Russian

Аудио #3
Идентификатор : 130 (0x82)
Формат : AC-3
Формат/Информация : Audio Coding 3
Продолжительность : 1 ч. 20 м.
Каналы : 6 каналов
Частота : 48,0 КГц
Метод сжатия : С потерями
Язык : Spanish

Текст
Идентификатор : 32 (0x20)
Формат : RLE
Формат/Информация : Run-length encoding
Битовая глубина : 2 бит
Язык : Russian

Меню #1
Продолжительность : 1 с. 600 мс.
00:00:00.000 : Chapter 1
List (Audio) : 0 / 1 / 2
List (Subtitles 4/3) : 0
List (Subtitles Wide) : 0
List (Subtitles Letterbox) : 0
List (Subtitles Pan&Scan) : 0

Меню #2
Продолжительность : 1 ч. 20 м.
00:00:00.000 : Chapter 1
00:00:03.600 : Chapter 2
00:00:05.680 : Chapter 3
00:00:08.360 : Chapter 4
00:00:46.360 : Chapter 5
00:01:10.360 : Chapter 6
00:01:13.680 : Chapter 7
00:01:33.680 : Chapter 8
00:02:14.680 : Chapter 9
00:02:17.880 : Chapter 10
00:02:31.880 : Chapter 11
00:02:34.000 : Chapter 12
00:03:13.000 : Chapter 13
00:03:18.440 : Chapter 14
00:03:22.080 : Chapter 15
00:03:28.760 : Chapter 16
00:04:13.760 : Chapter 17
00:04:19.240 : Chapter 18
00:04:25.000 : Chapter 19
List (Audio) : 0 / 1 / 2
List (Subtitles 4/3) : 0
List (Subtitles Wide) : 0
List (Subtitles Letterbox) : 0
List (Subtitles Pan&Scan) : 0

Общее
Полное имя : C:\Закачки\V.dome.otca.2012.D.DVD\VIDEO_TS\VTS_01_0.IFO
Формат : DVD Video
Профиль формата : Program
Размер файла : 58,0 Кбайт
Продолжительность : 1 ч. 20 м.
Режим общего битрейта : Переменный
Общий поток : 98 бит/сек

Видео
Идентификатор : 224 (0xE0)
Формат : MPEG Video
Версия формата : Version 2
Продолжительность : 1 ч. 20 м.
Вид битрейта : Переменный
Ширина : 720 пикселей
Высота : 576 пикселей
Соотношение сторон : 16:9
Частота кадров : 25,000 кадров/сек
Стандарт вещания : PAL
Метод сжатия : С потерями

Аудио #1
Идентификатор : 128 (0x80)
Формат : AC-3
Формат/Информация : Audio Coding 3
Продолжительность : 1 ч. 20 м.
Каналы : 6 каналов
Частота : 48,0 КГц
Метод сжатия : С потерями
Язык : Russian

Аудио #2
Идентификатор : 129 (0x81)
Формат : AC-3
Формат/Информация : Audio Coding 3
Продолжительность : 1 ч. 20 м.
Каналы : 2 канала
Частота : 48,0 КГц
Метод сжатия : С потерями
Язык : Russian

Аудио #3
Идентификатор : 130 (0x82)
Формат : AC-3
Формат/Информация : Audio Coding 3
Продолжительность : 1 ч. 20 м.
Каналы : 6 каналов
Частота : 48,0 КГц
Метод сжатия : С потерями
Язык : Spanish

Текст
Идентификатор : 32 (0x20)
Формат : RLE
Формат/Информация : Run-length encoding
Битовая глубина : 2 бит
Язык : Russian

Меню #1
Продолжительность : 1 с. 600 мс.
00:00:00.000 : Chapter 1
List (Audio) : 0 / 1 / 2
List (Subtitles 4/3) : 0
List (Subtitles Wide) : 0
List (Subtitles Letterbox) : 0
List (Subtitles Pan&Scan) : 0

Меню #2
Продолжительность : 1 ч. 20 м.
00:00:00.000 : Chapter 1
00:00:03.600 : Chapter 2
00:00:05.680 : Chapter 3
00:00:08.360 : Chapter 4
00:00:46.360 : Chapter 5
00:01:10.360 : Chapter 6
00:01:13.680 : Chapter 7
00:01:33.680 : Chapter 8
00:02:14.680 : Chapter 9
00:02:17.880 : Chapter 10
00:02:31.880 : Chapter 11
00:02:34.000 : Chapter 12
00:03:13.000 : Chapter 13
00:03:18.440 : Chapter 14
00:03:22.080 : Chapter 15
00:03:28.760 : Chapter 16
00:04:13.760 : Chapter 17
00:04:19.240 : Chapter 18
00:04:25.000 : Chapter 19
List (Audio) : 0 / 1 / 2
List (Subtitles 4/3) : 0
List (Subtitles Wide) : 0
List (Subtitles Letterbox) : 0
List (Subtitles Pan&Scan) : 0

Общее
Полное имя : C:\Закачки\V.dome.otca.2012.D.DVD\VIDEO_TS\VTS_01_0.VOB
Формат : MPEG-PS
Размер файла : 74,7 Мбайт
Продолжительность : 30 с.
Режим общего битрейта : Переменный
Общий поток : 20,9 Мбит/сек

Видео
Идентификатор : 224 (0xE0)
Формат : MPEG Video
Версия формата : Version 2
Профиль формата : Main@Main
Параметр BVOP формата : Да
Параметр матрицы формата : По умолчанию
Параметр GOP формата : M=3, N=12
Продолжительность : 29 с.
Вид битрейта : Переменный
Битрейт : 20,3 Мбит/сек
Максимальный битрейт : 7000 Кбит/сек
Ширина : 720 пикселей
Высота : 576 пикселей
Соотношение сторон : 16:9
Частота кадров : 25,000 кадров/сек
Стандарт вещания : PAL
Цветовое пространство : YUV
Субдискретизация насыщенности : 4:2:0
Битовая глубина : 8 бит
Тип развёртки : Прогрессивная
Метод сжатия : С потерями
Бит/(Пиксели*Кадры) : 1.955
Размер потока : 72,4 Мбайт (97%)

Аудио
Идентификатор : 189 (0xBD)-128 (0x80)
Формат : AC-3
Формат/Информация : Audio Coding 3
Расширение режима : CM (complete main)
Параметр Endianness формата : Big
Режим смешивания : DVD-Video
Продолжительность : 30 с.
Вид битрейта : Постоянный
Битрейт : 192 Кбит/сек
Каналы : 2 канала
Расположение каналов : Front: L R
Частота : 48,0 КГц
Битовая глубина : 16 бит
Метод сжатия : С потерями
Задержка видео : -80 мс.
Размер потока : 704 Кбайт (1%)

Текст #1
Идентификатор : 189 (0xBD)-32 (0x20)
Формат : RLE
Формат/Информация : Run-length encoding
Режим смешивания : DVD-Video
Задержка видео : -80 мс.

Текст #2
Идентификатор : 189 (0xBD)-33 (0x21)
Формат : RLE
Формат/Информация : Run-length encoding
Режим смешивания : DVD-Video
Задержка видео : -80 мс.

pb.wtf



Скачать В доме отца через торрент http://i39.fastpic.ru/big/2012/0619/3c/f1012b35bb00528bd11544fd355e8f3c.jpg Скачать фильм В доме отца через торрент бесплантно в хорошем качестве Описание: Армандо Альварес обычный парень, не особо видавший жизнь. Да и как насладиться ею, когда он вынужден проводить все своё время на ... 5 10 4
Info! Золотая раздача, скачанное не засчитывается.
Торрент: Зарегистрирован [2012-06-19 15:22] · скачан: 65 раз
Статус: √ проверено
Размер: 4.36 GB
Как cкачать? Как скачать В доме отца через торрент | UTorrent

% Раздел Тема Автор DL S | L
Фильмы 2012 [ 701 MB ] В доме отца / Casa de mi Padre [2012 DVDRip DUB ] -=Cherry=- Скачать
1 | 0
Фильмы 2012 [ 1.46 GB ] В доме отца / Casa de mi Padre [2012 DVDRip DUB ] WISE Скачать
1 | 0

28-11-2019 20:33  

Отключить всю рекламу на сайте

    Дорогой пользователь! Огромная просьба, поблагодарите релизера, оцените раздачу и оставьте свои комментарий, если Вы скачали В доме отца через торрент бесплатно! Внесите свою лепту в развитие PiratBit!
    Комментировать посты могут только пользователи прошедшие не сложную регистрацию
    Показать сообщения:    

    В доме отца через торрент
    Скачать бесплатно В доме отца
    В доме отца скачать торрент
    В доме отца смотреть онлайн
    Cкачать фильм В доме отца бесплатно
    В доме отца скачать торрент в хорошем качестве
    В доме отца смотреть онлайн бесплатно в хорошем качестве


    Вы не можете начинать темы
    Вы не можете отвечать на сообщения
    Вы не можете редактировать свои сообщения
    Вы не можете удалять свои сообщения
    Вы не можете голосовать в опросах
    Вы не можете прикреплять файлы к сообщениям
    Вы можете скачивать файлы