Присоединяйтесь к нам в Telegram!, здесь всегда актуальный адрес сайта, оперативная поддержка и многое другое!!

>

5.9

iTunes

7.4

iTunes

9.4

1 сезон

1

7.4

2 сезон

7.2

iTunes

7.3

1 сезон

13

6.1

iTunes

8.3

GOG

30

ULTIMATE

pack

9.9

Лицензия

ВАЖНО

ИГРА 18+

pack

7.3

RePack

MK11

7.7

RePack

jed

7.8

RePack

fifa19

8.5

RePack

RDR2

RePack

NEED FOR SPEED™ PAYBACK

5 сезон

9 сезон

Бесстыжие 9 сезон

Все сериалы

все сериалы на PB.wtf

RePack

FAR CRY 5

Anonymous, доброй ночи, мы катастрофически не успеваем собрать деньги на оплату серверов, помогите нам пожалуйста 5,10,15р., для нас важна любая помощь . В качестве благодарности мы отключим Вам всю рекламу на сайте (укажите свой ник в строку Ваше имя)!

×
  
Magnet ссылка

Aura Dione - Friends ft. Rock Mafia (Official video) [2012 г., Pop, 720p WEB-DLRip] pb.wtf

Aura Dione - Friends ft. Rock Mafia через торрент pb.wtf

Размер: 56 MB | Добавлен: 9 лет 5 мес. назад | Торрент скачан:59 раз
Смотреть онлайн Aura Dione - Friends ft. Rock Mafia | Скачать    Ребята, помогите собрать деньги на оплату серверов!!!

19-06-2012 17:08 Aura Dione - Friends ft. Rock Mafia Скачать торрент  

Aura Dione - Friends ft. Rock Mafia

Год выпуска: 2012
Страна: США
Жанр: Pop
Продолжительность: 00:03:49

Качество: 720p WEB-DLRip
Формат: MPEG
Видео кодек: AVC
Аудио кодек: AAC
Видео: MPEG4 Video (H264) 1280x720 30fps
Аудио#1: AAC 44100Hz stereo 1411kbps
General

Format : MPEG-4
Format profile : Base Media / Version 2
Codec ID : mp42
File size : 55.6 MiB
Duration : 3mn 49s
Overall bit rate mode : Variable
Overall bit rate : 2 030 Kbps
Encoded date : UTC 2012-03-06 09:56:36
Tagged date : UTC 2012-03-06 09:56:36
gsst : 0
gstd : 229806
gssd : BADC23A2BHH1340123300109814
gshh : o-o.preferred.svo02s03.v11.lscache7.c.youtube.com

Video
ID : 1
Format : AVC
Format/Info : Advanced Video Codec
Format profile : High@L3.1
Format settings, CABAC : Yes
Format settings, ReFrames : 1 frame
Codec ID : avc1
Codec ID/Info : Advanced Video Coding
Duration : 3mn 49s
Bit rate : 1 881 Kbps
Maximum bit rate : 3 220 Kbps
Width : 1 280 pixels
Height : 720 pixels
Display aspect ratio : 16:9
Frame rate mode : Constant
Frame rate : 30.000 fps
Color space : YUV
Chroma subsampling : 4:2:0
Bit depth : 8 bits
Scan type : Progressive
Bits/(Pixel*Frame) : 0.068
Stream size : 51.5 MiB (93%)
Tagged date : UTC 2012-03-06 09:56:36

Audio
ID : 2
Format : AAC
Format/Info : Advanced Audio Codec
Format profile : LC
Codec ID : 40
Duration : 3mn 49s
Bit rate mode : Variable
Bit rate : 144 Kbps
Maximum bit rate : 208 Kbps
Channel(s) : 2 channels
Channel positions : Front: L R
Sampling rate : 44.1 KHz
Compression mode : Lossy
Stream size : 4.01 MiB (7%)
Title : IsoMedia File Produced by Google, 5-11-2011
Encoded date : UTC 2012-03-06 09:56:36
Tagged date : UTC 2012-03-06 09:56:36



pb.wtf



Скачать Aura Dione - Friends ft. Rock Mafia через торрент https://pic1.kartinco.top/images/111/82ur1h3uz4.jpg Скачать, смотреть онлайн Aura Dione - Friends ft. Rock Mafia бесплантно в хорошем качестве Год выпуска: 2012Страна: СШАЖанр: PopПродолжительность: ... 10 10 1
Info! Золотая раздача, скачанное не засчитывается.
Торрент: Зарегистрирован [2012-06-19 17:08] · скачан: 59 раз
Статус: √ проверено
Размер: 56 MB
Как cкачать? Как скачать Aura Dione - Friends ft. Rock Mafia через торрент | UTorrent

28-11-2019 20:33  

Отключить всю рекламу на сайте

    Дорогой пользователь! Огромная просьба, поблагодарите релизера, оцените раздачу и оставьте свои комментарий, если Вы скачали Aura Dione - Friends ft. Rock Mafia через торрент бесплатно!
    Комментировать посты могут только пользователи прошедшие не сложную регистрацию
    Показать сообщения:    

    Aura Dione - Friends ft. Rock Mafia через торрент
    Скачать бесплатно Aura Dione - Friends ft. Rock Mafia
    Aura Dione - Friends ft. Rock Mafia скачать торрент
    Aura Dione - Friends ft. Rock Mafia смотреть онлайн
    Cкачать фильм Aura Dione - Friends ft. Rock Mafia бесплатно
    Aura Dione - Friends ft. Rock Mafia скачать торрент в хорошем качестве
    Aura Dione - Friends ft. Rock Mafia смотреть онлайн бесплатно в хорошем качестве


    Вы не можете начинать темы
    Вы не можете отвечать на сообщения
    Вы не можете редактировать свои сообщения
    Вы не можете удалять свои сообщения
    Вы не можете голосовать в опросах
    Вы не можете прикреплять файлы к сообщениям
    Вы можете скачивать файлы