Ссылка на приватное зеркало нашего сайта всего за 1$. Внимание количество ограничено!!!

2 сезон

iTunes

1 сезон

1

iTunes

iTunes

iTunes

1 сезон

RePack

30

ИГРА 18+

pack

ВАЖНО

!!Акция!!

Alien_RageХит недели

RePack

MK11
pack

Забери бонус

RePack

jed

!!Акция!!

Alien_Rage

RePack

fifa19

RePack

Assassins Creed: Odyssey

RePack

NEED FOR SPEED™ PAYBACK

4 сезон

9 сезон

Бесстыжие 9 сезон

Все сериалы

все сериалы на PB.wtf

RePack

FAR CRY 5
  

Исчезновение на 7-й улице / Vanishing On 7th Street (Брэд Андерсон) [2010 г., ужасы, триллер, детектив,, BDRip (1080p), DUB + Оригинал] pb.wtf

Исчезновение на 7-й улице через торрент pb.wtf

Размер: 8.19 GB | Добавлен: 8 лет 4 мес. назад | Торрент скачан:77 раз
Скачать  

20-06-2012 16:30 Исчезновение на 7-й улице Скачать торрент  

Исчезновение на 7-й улице / Vanishing On 7th Street

Год выпуска: 2010
Страна: США
Жанр: ужасы, триллер, детектив,
Продолжительность: 01:31:43
Перевод: Дубляж + Оригинал

Режиссер: Брэд Андерсон
Продюссер: Тоув Кристенсен, Селин Рэттрэй, Нортон Херрик
Сценарий: Энтони Джазвински

Бюджет: $10 000 000
Премьера в мире: 12 сентября 2010




В ролях: Хейден Кристенсен, Тэнди Ньютон, Джон Легуизамо, Джордан Тровиллион, Тейлор Грутиус, Джейкоб Латимор, Артур Картрайт, Кристина Бенжамин, Кортни Бенжамин, Уилл Кларк

Описание: Необъяснимое затмение опускается на город Детройт, к восходу солнца только несколько человек остаются уцелевшими среди куч одежды, брошенных автомобилей и удлиненных теней. Люк, репортер телевидения, находит улицы вокруг своего дома устрашающе пустыми. Пол, киномеханик, оказывается вдруг совершенно один в совсем недавно переполненном кинотеатре. Физиотерапевт Розмари выходит наружу из-за дыма, а возвращается в пустую больницу, Джеймс, испуганный мальчик терпеливо ждет, пока вернется его мать. Каждый из них находит свой путь к захудалому бару, наличие в котором бензинового генератора, запасов еды и питья делают последним прибежищем в опустевшем городе. Дневной свет начинает уходить, оставшихся в живых окружают шепчущие тени. Люк обнаруживает, что другой бункер с людьми скрывается поблизости от Чикаго. Он прочесывает город в поисках транспортного средства, которое выручит их всех. Но Розмари, охвачена горем после потери младенца, Джеймс не может бросить мать, а Пол, вероятно, слишком травмирован для поездки. Поскольку время начинает заканчиваться для них, а темнота приближается, им придется столкнуться с запредельным ужасом.

Качество: BDRip (1080p)
Формат: MKV
Видео кодек: H.26x
Аудио кодек: AC3
Видео: MPEG4 Video (H264) 1920x800 23.976fps 11.0 Mbps
Аудио#1: Dolby AC3 48000Hz 6ch 384 Kbps Русский
Аудио#2:DTS 48.0 KHz 6 channels 1 510 Kbps English










General
Unique ID : 200892569966795257953830620906114970859 (0x9722806989F5AC098B33208580E2F4EB)
Format : Matroska
Format version : Version 2
File size : 8.19 GiB
Duration : 1h 31mn
Overall bit rate : 12.8 Mbps
Movie name : --SCHUMAHER--
Encoded date : UTC 2011-05-13 19:36:19
Writing application : mkvmerge v4.6.0 ('Still Crazy After All These Years') сборка от Mar 10 2011 02:50:32
Writing library : libebml v1.2.0 + libmatroska v1.1.0

Video
ID : 1
Format : AVC
Format/Info : Advanced Video Codec
Format profile : High@L4.1
Format settings, CABAC : Yes
Format settings, ReFrames : 5 frames
Codec ID : V_MPEG4/ISO/AVC
Duration : 1h 31mn
Bit rate : 11.0 Mbps
Width : 1 920 pixels
Height : 800 pixels
Display aspect ratio : 2.40:1
Frame rate : 23.976 fps
Color space : YUV
Chroma subsampling : 4:2:0
Bit depth : 8 bits
Scan type : Progressive
Bits/(Pixel*Frame) : 0.297
Stream size : 6.82 GiB (83%)
Writing library : x264 core 115 r1947 b5a8ad7
Encoding settings : cabac=1 / ref=5 / deblock=1:0:0 / analyse=0x3:0x133 / me=umh / subme=7 / psy=1 / psy_rd=1.00:0.10 / mixed_ref=1 / me_range=16 / chroma_me=1 / trellis=1 / 8x8dct=1 / cqm=0 / deadzone=21,11 / fast_pskip=0 / chroma_qp_offset=-5 / threads=12 / sliced_threads=0 / nr=0 / decimate=0 / interlaced=0 / bluray_compat=0 / constrained_intra=0 / bframes=3 / b_pyramid=2 / b_adapt=1 / b_bias=0 / direct=1 / weightb=1 / open_gop=0 / weightp=2 / keyint=250 / keyint_min=23 / scenecut=40 / intra_refresh=0 / rc_lookahead=40 / rc=2pass / mbtree=1 / bitrate=10956 / ratetol=1.0 / qcomp=0.60 / qpmin=10 / qpmax=51 / qpstep=4 / cplxblur=20.0 / qblur=0.5 / ip_ratio=1.40 / aq=1:1.20
Language : English
Default : Yes
Forced : Yes

Audio #1
ID : 2
Format : AC-3
Format/Info : Audio Coding 3
Mode extension : CM (complete main)
Format settings, Endianness : Big
Codec ID : A_AC3
Duration : 1h 31mn
Bit rate mode : Constant
Bit rate : 384 Kbps
Channel(s) : 6 channels
Channel positions : Front: L C R, Side: L R, LFE
Sampling rate : 48.0 KHz
Bit depth : 16 bits
Compression mode : Lossy
Stream size : 252 MiB (3%)
Language : Russian
Default : Yes
Forced : Yes

Audio #2
ID : 3
Format : DTS
Format/Info : Digital Theater Systems
Codec ID : A_DTS
Duration : 1h 31mn
Bit rate mode : Constant
Bit rate : 1 510 Kbps
Channel(s) : 6 channels
Channel positions : Front: L C R, Side: L R, LFE
Sampling rate : 48.0 KHz
Bit depth : 24 bits
Compression mode : Lossy
Delay relative to video : 11ms
Stream size : 990 MiB (12%)
Language : English
Default : No
Forced : No

pb.wtf



Скачать Исчезновение на 7-й улице через торрент http://pic.kartinco.top/images/1/sj39e5y3y6.jpg Скачать фильм Исчезновение на 7-й улице через торрент бесплантно в хорошем качестве Описание: Необъяснимое затмение опускается на город Детройт, к восходу солнца только несколько человек остаются уцелевшими среди куч ... 10 10 2
Info! Золотая раздача, скачанное не засчитывается.
Торрент: Зарегистрирован [2012-06-20 16:30] · скачан: 77 раз
Статус: √ проверено
Размер: 8.19 GB
Как cкачать? Как скачать Исчезновение на 7-й улице через торрент | qTorrent



Последний раз редактировалось: timsons17 (2012-06-20 19:13), всего редактировалось 1 раз

28-11-2019 20:33  

Отключить всю рекламу на сайте

    Дорогой пользователь! Огромная просьба, поблагодарите релизера, оцените раздачу и оставьте свои комментарий, если Вы скачали Исчезновение на 7-й улице через торрент бесплатно! Внесите свою лепту в развитие PiratBit!
    Комментировать посты могут только пользователи прошедшие не сложную регистрацию
    Показать сообщения:    

    Исчезновение на 7-й улице через торрент
    Скачать бесплатно Исчезновение на 7-й улице
    Исчезновение на 7-й улице скачать торрент
    Исчезновение на 7-й улице смотреть онлайн
    Cкачать фильм Исчезновение на 7-й улице бесплатно
    Исчезновение на 7-й улице скачать торрент в хорошем качестве
    Исчезновение на 7-й улице смотреть онлайн бесплатно в хорошем качестве


    Вы не можете начинать темы
    Вы не можете отвечать на сообщения
    Вы не можете редактировать свои сообщения
    Вы не можете удалять свои сообщения
    Вы не можете голосовать в опросах
    Вы не можете прикреплять файлы к сообщениям
    Вы можете скачивать файлы