Ссылка на приватное зеркало нашего сайта всего за 1$. Внимание количество ограничено!!!

2 сезон

iTunes

iTunes

1

iTunes

iTunes

iTunes

WEBRip

iTunes

30
pack

Вам бонус

ВАЖНО

!!Акция!!

Alien_RageХит недели

RePack

Horizon Zero Dawn

ИГРА 18+

pack

RePack

jed

!!Акция!!

Alien_Rage

RePack

fifa19

RePack

Assassins Creed: Odyssey

RePack

NEED FOR SPEED™ PAYBACK

4 сезон

9 сезон

Бесстыжие 9 сезон

Все сериалы

все сериалы на PB.wtf

RePack

FAR CRY 5
  

[Lady-Sonia] Lady Sonia (Use Me As Your MILF Anal Fuck Toy) [22.06.2012 г., MILF, Stockings, Nylons, Bra, Panties, Dildo, Vibrator, SATRip] pb.wtf

через торрент pb.wtf

Размер: 366 MB | Добавлен: 8 лет 3 мес. назад | Торрент скачан:230 раз
Скачать  

22-06-2012 09:01 Скачать торрент  

[Lady-Sonia.com]
Lady Sonia
Use Me As Your MILF Anal Fuck Toy
[22.06.2012 г.]

Имя актрисы: Lady Sonia
Название ролика: Use Me As Your MILF Anal Fuck Toy
Подсайт и сайт: Lady-Sonia.com

Год производства: 2012 г.
Жанр: MILF, Stockings, Nylons, Bra, Panties, Dildo, Vibrator
Продолжительность: 00:24:25

Качество: SATRip
Формат видео: MP4
Видео кодек: AVC
Аудио кодек: AAC
Видео: 25.000 fps, 1 996 Kbps, 720x404
Аудио: 93.0 Kbps, 2 channels, 48.0 KHz

Описание:
I have seen you looking at me and my husband is out for the evening…
Do you want me to undress for you? And you want me to show you EVERYTHING?
Would you like me to take my tiny little panties off for you and bend over?
Do you want to use me as your MILF “Anal Fuck-Toy”?
I want you to unzip for me so that I can see your HUGE throbbing erection and then I want to feel you spray me with a HUGE load of your hot thick cum…
And then I want to open my legs for you… I want to show you EVERYTHING that you want to see!
I want to show you how tight I am for you and I want to show you how much RAW pleasure you could have with me as your own personal MILF “Anal Fuck-Toy”…
Would you like that? I am waiting for you inside RIGHT NOW!

General
Complete name : Use Me As Your MILF Anal Fuck Toy.mp4
Format : MPEG-4
Format profile : Base Media / Version 2
Codec ID : mp42
File size : 366 MiB
Duration : 24mn 25s
Overall bit rate mode : Variable
Overall bit rate : 2 093 Kbps
Encoded date : UTC 2012-05-24 22:26:54
Tagged date : UTC 2012-05-24 22:26:54
Writing library : AVS

Video
ID : 1
Format : AVC
Format/Info : Advanced Video Codec
Format profile : Baseline@L1.3
Format settings, CABAC : No
Format settings, ReFrames : 1 frame
Codec ID : avc1
Codec ID/Info : Advanced Video Coding
Duration : 24mn 25s
Bit rate : 1 996 Kbps
Width : 720 pixels
Height : 404 pixels
Display aspect ratio : 16:9
Frame rate mode : Constant
Frame rate : 25.000 fps
Color space : YUV
Chroma subsampling : 4:2:0
Bit depth : 8 bits
Scan type : Progressive
Bits/(Pixel*Frame) : 0.274
Stream size : 349 MiB (95%)
Language : English
Encoded date : UTC 2012-05-24 22:26:54
Tagged date : UTC 2012-05-24 22:26:54

Audio
ID : 2
Format : AAC
Format/Info : Advanced Audio Codec
Format profile : LC
Codec ID : 40
Duration : 24mn 25s
Bit rate mode : Variable
Bit rate : 93.0 Kbps
Maximum bit rate : 96.0 Kbps
Channel(s) : 2 channels
Channel positions : Front: L R
Sampling rate : 48.0 KHz
Compression mode : Lossy
Stream size : 16.2 MiB (4%)
Language : English
Encoded date : UTC 2012-05-24 22:26:54
Tagged date : UTC 2012-05-24 22:26:54
pb.wtf



pack Скачать через торрент http://i43.fastpic.ru/big/2012/0622/95/05cb98b82668463da73c7ea000acb395.jpg Скачать фильм [Lady-Sonia] Lady Sonia через торрент бесплантно в хорошем качестве Описание:I have seen you looking at me and my husband is out for the evening…Do you want me to undress for you? And you want me to show you ... 10 10 8
Info! Золотая раздача, скачанное не засчитывается.
Торрент: Зарегистрирован [2012-06-22 09:01] · скачан: 230 раз
Статус: √ проверено
Размер: 366 MB
Как cкачать? Как скачать через торрент | qTorrent

28-11-2019 20:33  

Отключить всю рекламу на сайте

03-07-2014 17:15 Скачать торрент  

А секс с ней есть? Что-то не нашел...pb.wtf



pack
    Дорогой пользователь! Огромная просьба, поблагодарите релизера, оцените раздачу и оставьте свои комментарий, если Вы скачали через торрент бесплатно! Внесите свою лепту в развитие PiratBit!
    Комментировать посты могут только пользователи прошедшие не сложную регистрацию
    Показать сообщения:    

    через торрент
    Скачать бесплатно
    скачать торрент
    смотреть онлайн
    Cкачать фильм бесплатно
    скачать торрент в хорошем качестве
    смотреть онлайн бесплатно в хорошем качестве


    Вы не можете начинать темы
    Вы не можете отвечать на сообщения
    Вы не можете редактировать свои сообщения
    Вы не можете удалять свои сообщения
    Вы не можете голосовать в опросах
    Вы не можете прикреплять файлы к сообщениям
    Вы можете скачивать файлы