Всегда рабочее зеркало без VPN и Proxy просто перед .vidak.icu напиши любое слово или цифру, Пример http://1h9b.vidak.icu

MVO

MVO

1 сезон

1

1 сезон

iTunes

1 сезон

13

1 сезон

Deluxe

pack

Рекомендуем

Repack

30

ВАЖНО

RePack

MK11

RePack

jed

RePack

fifa19

RePack

RDR2

RePack

NEED FOR SPEED™ PAYBACK

Кинопоиск HD

6 сезон

 Острые козырьки 6 сезон

Все сериалы

все сериалы на PB.wtf

RePack

FAR CRY 5
  
Magnet ссылка

Белоснежка и семь гномов / Snow White and the Seven Dwarfs (Уильям Коттрелл, Дэвид Хэнд, Уилфред Джексон) [1937 г., мультфильм, мюзикл, фэнтези, мелодрама, семейный, HDRip, DUB] pb.wtf

Белоснежка и семь гномов через торрент pb.wtf

Размер: 1.46 GB | Добавлен: 10 лет назад | Торрент скачан:613 раз
Смотреть онлайн Белоснежка и семь гномов | Скачать    Ребята, помогите собрать деньги на оплату серверов!!!

23-06-2012 16:24 Белоснежка и семь гномов Скачать торрент  

Белоснежка и семь гномов / Snow White and the Seven Dwarfs

Год выпуска: 1937
Страна: США
Жанр: мультфильм, мюзикл, фэнтези, мелодрама, семейный
Продолжительность: 01:23:11
Перевод: Дубляж
Субтитры: Отсутствуют

Режиссер: Уильям Коттрелл, Дэвид Хэнд, Уилфред Джексон
Продюссер: Уолт Дисней

Бюджет: $1 499 000

IMDB 7.80 (63 056)


В ролях: Рой Этвелл, Стюарт Бьюкэнэн, Адриана Каселотти, Эдди Коллинз, Пинто Колвиг, Мэрион Дарлингтон, Билли Гилберт, Отис Хэрлан, Люсиль Ла Верн, Евгений Умаров, Николай Федорцов, Евгения Игумнова, Елена Ушакова, Борис Смолкин

Описание: Экранизация знаменитой немецкой сказки братьев Гримм о Белоснежке, жившей в замке со злой мачехой-королевой, которая очень гордилась своей красотой. Узнав от волшебного зеркальца, что Белоснежка стала самой прекрасной девушкой на свете, завистница решила погубить прелестную падчерицу. Но бедная девушка не погибла в лесу, а наоборот, встретила там настоящих друзей — забавных семерых гномов: Профессора, Ворчуна, Весельчака, Скромника, Чихоню, Соню и Молчуна…

Доп. информация: хор Хэлла Джонсона;
Первый полнометражный мультипликационный фильм Уолта Диснея. Одно из самых очаровательных зрелищ на все вкусы и для всех возрастов!

Качество: HDRip
Формат: AVI
Видео кодек: XviD
Аудио кодек: AC3
Видео: 720x544 (1.32:1), 23.976 fps, XviD build 47 ~2112 kbps avg, 0.23 bit/pixel
Аудио#1: Русский: 48 kHz, AC3 Dolby Digital, 3/2 (L,C,R,l,r) + LFE ch, ~384 kbps



Общее
Полное имя : F:\Закачки\Belosnegka.I.Sem.Gnomov.1937.HDRip.XviD.avi
Формат : AVI
Формат/Информация : Audio Video Interleave
Размер файла : 1,46 Гбайт
Продолжительность : 1 ч. 23 м.
Общий поток : 2506 Кбит/сек
Название фильма : Белоснежка и семь гномов / Snow White and the Seven Dwarfs (1937)
Режиссёр : vladaudi (BDRip 1080)
Программа кодирования : VirtualDubMod 1.5.10.2 (build 2540/release)
Правообладатель : HQ-ViDEO (www.hq-video.ru)
Примечание : 11.10.2009

Видео
Идентификатор : 0
Формат : MPEG-4 Visual
Профиль формата : Advanced [email protected]
Параметр BVOP формата : 1
Параметр QPel формата : Нет
Параметр GMC формата : Без точки перехода
Параметр матрицы формата : Default (MPEG)
Идентификатор кодека : XVID
Идентификатор кодека/Подсказка : XviD
Продолжительность : 1 ч. 23 м.
Битрейт : 2113 Кбит/сек
Ширина : 720 пикселей
Высота : 544 пикселя
Соотношение сторон : 4:3
Соотношение сторон в оригинале : 4:3
Частота кадров : 23,976 кадра/сек
Цветовое пространство : YUV
Субдискретизация насыщенности : 4:2:0
Битовая глубина : 8 бит
Тип развёртки : Прогрессивная
Метод сжатия : С потерями
Бит/(Пиксели*Кадры) : 0.225
Размер потока : 1,23 Гбайт (84%)
Библиотека кодирования : XviD 1.2.0.dev47 (UTC 2006-11-01)

Аудио
Идентификатор : 1
Формат : AC-3
Формат/Информация : Audio Coding 3
Расширение режима : CM (complete main)
Параметр Endianness формата : Big
Идентификатор кодека : 2000
Продолжительность : 1 ч. 23 м.
Вид битрейта : Постоянный
Битрейт : 384 Кбит/сек
Каналы : 6 каналов
Расположение каналов : Front: L C R, Side: L R, LFE
Частота : 48,0 КГц
Битовая глубина : 16 бит
Метод сжатия : С потерями
Размер потока : 228 Мбайт (15%)
Выравнивание : Разделение по промежуткам
Продолжительность промежутка : 42 мс. (1,00 видеокадр)
Время предзагрузки промежутка : 500 мс.

pb.wtf



Скачать Белоснежка и семь гномов через торрент https://pic1.kartinco.top/images/111/6luqrqhe1i.jpg Скачать, смотреть онлайн Белоснежка и семь гномов бесплантно в хорошем качестве Описание: Экранизация знаменитой немецкой сказки братьев Гримм о Белоснежке, жившей в замке со злой мачехой-королевой, которая очень ... 10 10 4
Info! Золотая раздача, скачанное не засчитывается.
Торрент: Зарегистрирован [2012-06-23 16:24] · скачан: 613 раз
Статус: √ проверено
Размер: 1.46 GB
Как cкачать? Как скачать Белоснежка и семь гномов через торрент | UTorrent

% Раздел Тема Автор DL S | L
Мультфильмы (48-60 fps) [ 6.07 GB ] Белоснежка и семь гномов / Snow White and the Seven Dwarfs [1937 BDRip 1080p / 60 fps] DUB от R.G. HD-Films СидБот60fps Скачать
1 | 0
Иностранные мультфильмы [ 1.46 GB ] Белоснежка и семь гномов / Snow White and the Seven Dwarfs [1937 мультфильм мюзикл HDRip by Dean24] Dean24 Скачать
1 | 1
Мультфильмы (48-60 fps) [ 4.06 GB ] Белоснежка и семь гномов / Snow White and the Seven Dwarfs [1937 BDRip 720p / 60 fps] DUB от R.G. HD-Films СидБот60fps Скачать
1 | 0
Зарубежные Мультфильмы (DVD) [ 4.1 GB ] Белоснежка и семь гномов / Snow White and the Seven Dwarfs [1937 мюзикл мультфильм DVD5] Anonymous Скачать
1 | 0
Иностранные мультфильмы [ 1.37 GB ] Белоснежка и семь гномов / Snow White and the Seven Dwarfs [1937 мюзикл мультфильм DVDRip] Anonymous Скачать
1 | 0


Последний раз редактировалось: DJERG (2012-06-23 17:32), всего редактировалось 2 раз(а)

28-11-2019 20:33  

Отключить вcю реклaмy на сайте

23-06-2012 17:15 Белоснежка и семь гномов Скачать торрент  

DJERG
Качество? Формат? Видео кодек? Аудио кодек?pb.wtf



    Дорогой пользователь! Огромная просьба, поблагодарите релизера, оцените раздачу и оставьте свои комментарий, если Вы скачали Белоснежка и семь гномов через торрент бесплатно!
    Комментировать посты могут только пользователи прошедшие не сложную регистрацию
    Показать сообщения:    

    Белоснежка и семь гномов через торрент
    Скачать бесплатно Белоснежка и семь гномов
    Белоснежка и семь гномов скачать торрент
    Белоснежка и семь гномов смотреть онлайн
    Cкачать фильм Белоснежка и семь гномов бесплатно
    Белоснежка и семь гномов скачать торрент в хорошем качестве
    Белоснежка и семь гномов смотреть онлайн бесплатно в хорошем качестве


    Вы не можете начинать темы
    Вы не можете отвечать на сообщения
    Вы не можете редактировать свои сообщения
    Вы не можете удалять свои сообщения
    Вы не можете голосовать в опросах
    Вы не можете прикреплять файлы к сообщениям
    Вы можете скачивать файлы