новый адрес
Ссылка на приватное зеркало всего за 1$. Внимание количество ограничено!!!

iTunes

1+1

iTunes

мы

WEB-DL

1

iTunes

Чернобыль

iTunes

Ральф против интернета

Лицензия

ПШазам

Лицензия

Оно 2

Лицензия

30
pack

Вам бонус

ВАЖНО

!!Акция!!

Alien_RageХит недели

RePack

Resident Evil 21

ИГРА 18+

pack

RePack

jed

!!Акция!!

Alien_Rage

RePack

fifa19

RePack

Assassins Creed: Odyssey

RePack

NEED FOR SPEED™ PAYBACK

3 сезон

9 сезон

Бесстыжие 9 сезон

Все сериалы

все сериалы на PB.wtf

RePack

FAR CRY 5
Ребята, катастрофически не хватает 1900р. для оплаты серверов за Октябрь (всвязи с блокировками трафик упал в 3 раза), 1-2р., выручайте.
  

Гавр / Le Havre (Аки Каурисмяки) [2011 г., драма, комедия, HDRip, Профессиональный (многоголосый)] pb.wtf

Гавр через торрент pb.wtf

Размер: 1.46 GB | Добавлен: 7 лет 5 мес. назад | Торрент скачан:79 раз
Скачать  

24-06-2012 15:42 Гавр Скачать торрент  

Гавр / Le Havre

Год выпуска: 2011
Страна: Германия, Финляндия, Франция
Жанр: драма, комедия
Продолжительность: 01:29:34
Перевод: Профессиональный (многоголосый)[студия Омикрон]

Режиссер: Аки Каурисмяки
Продюссер: Аки Каурисмяки, Карл Баумгартнер, Рейнхард Брюндиг
Сценарий: Аки Каурисмяки

Премьера в мире: 17 мая 2011

IMDb: 7.30 (5 053)
КиноПоиск : 7.236 (360)


В ролях: Андре Вильм, Кати Оутинен, Жан-Пьер Дарруссен, Блондин Мигель, Элина Сало, Эвелин Диди

Описание: Марсель Маркс, в прошлом богемный писатель, переселяется в портовый город Гавр и становится чистильщиком сапог. Занятие, хоть и не очень хлебное, дает Марселю ощущение пользы для людей. Поставив крест на своих писательских амбициях, Марсель вполне доволен жизнью, проводя ее между работой, домом и ближайшим кабаком.

Но однажды судьба сталкивает его с ребенком-иммигрантом из Черной Африки, а жена Марселя Арлетти тяжело заболевает. И вновь Марсель оказывается перед холодной стеной равнодушия и пробует победить слепую государственную машину, надвигающуюся на ребенка-беженца. Оружие Марселя — только врожденный оптимизм и поддержка многочисленных друзей. Сможет ли он победить в этой неравной борьбе?..

Доп. информация:
премьера (РФ) 21 июня 2012, «Русский репортаж

Качество: HDRip
Формат: AVI
Видео кодек: XviD
Аудио кодек: AC3
Видео: 1 941 Kbps, 704 pixels х 384 pixels, 25.000 fps, Bits/Pixel : 0.287
Аудио#1: 384 Kbps, 6 channels, 48.0 KHz


Format : AVI
Format/Info : Audio Video Interleave
File size : 1.46 GiB
Duration : 1h 29mn
Overall bit rate : 2 335 Kbps
Writing application : VirtualDubMod 1.5.10.2 (build 2542/release)
Writing library : VirtualDubMod build 2542/release
Video #0
ID : 0
Format : MPEG-4 Visual
Format profile : Advanced Simple@L5
Format settings, BVOP : 1
Format settings, QPel : No
Format settings, GMC : No warppoints
Format settings, Matrix : Default (MPEG)
Codec ID : XVID
Codec ID/Hint : XviD
Duration : 1h 29mn
Bit rate : 1 941 Kbps
Width : 704 pixels
Height : 384 pixels
Display aspect ratio : 16:9
Frame rate : 25.000 fps
Color space : YUV
Chroma subsampling : 4:2:0
Bit depth : 8 bits
Scan type : Progressive
Compression mode : Lossy
Bits/(Pixel*Frame) : 0.287
Stream size : 1.21 GiB (83%)
Writing library : XviD 1.2.1 (UTC 2008-12-04)
Audio #1
ID : 1
Format : AC-3
Format/Info : Audio Coding 3
Mode extension : CM (complete main)
Codec ID : 2000
Duration : 1h 29mn
Bit rate mode : Constant
Bit rate : 384 Kbps
Channel(s) : 6 channels
Channel positions : Front: L C R, Side: L R, LFE
Sampling rate : 48.0 KHz
Bit depth : 16 bits
Compression mode : Lossy
Stream size : 246 MiB (16%)

pb.wtf



Скачать Гавр через торрент http://pic.kartinco.top/images/1/3hfijffyk8.jpg Скачать фильм Гавр через торрент бесплантно в хорошем качестве Описание: Марсель Маркс, в прошлом богемный писатель, переселяется в портовый город Гавр и становится чистильщиком сапог. Занятие, хоть и ... 5 10 6
Info! Золотая раздача, скачанное не засчитывается.
Торрент: Зарегистрирован [2012-06-24 15:42] · скачан: 79 раз
Статус: √ проверено
Размер: 1.46 GB
Как cкачать? Как скачать Гавр через торрент | qTorrent

28-11-2019 20:33  

Отключить всю рекламу на сайте

    Дорогой пользователь! Огромная просьба, поблагодарите релизера, оцените раздачу и оставьте свои комментарий, если Вы скачали Гавр через торрент бесплатно! Внесите свою лепту в развитие PiratBit!
    Комментировать посты могут только пользователи прошедшие не сложную регистрацию
    Показать сообщения:    

    Гавр через торрент
    Скачать бесплатно Гавр
    Гавр скачать торрент
    Гавр смотреть онлайн
    Cкачать фильм Гавр бесплатно
    Гавр скачать торрент в хорошем качестве
    Гавр смотреть онлайн бесплатно в хорошем качестве


    Вы не можете начинать темы
    Вы не можете отвечать на сообщения
    Вы не можете редактировать свои сообщения
    Вы не можете удалять свои сообщения
    Вы не можете голосовать в опросах
    Вы не можете прикреплять файлы к сообщениям
    Вы можете скачивать файлы