1 сезон

3 сезон

iTunes

1

iTunes

MVO

iTunes

13

1 сезон

RePack

30

Deluxe

pack

Лицензия

ВАЖНО

ИГРА 18+

pack

RePack

MK11

RePack

jed

RePack

fifa19

RePack

RDR2

RePack

NEED FOR SPEED™ PAYBACK

4 сезон

9 сезон

Бесстыжие 9 сезон

Все сериалы

все сериалы на PB.wtf

RePack

FAR CRY 5

Anonymous, добрый день, мы катастрофически не успеваем собрать деньги на оплату серверов, помогите нам пожалуйста 5,10,15р., для нас важна любая помощь . В качестве благодарности мы отключим Вам всю рекламу на сайте (укажите свой ник в строку Ваше имя)!

×
  
Magnet ссылка

Секса много не бывает / Un heureux evenement (Реми Безансон / Remi Bezancon) [2011, драма, комедия, DVD9] R5 pb.wtf

Секса много не бывает через торрент pb.wtf

Размер: 6.42 GB | Добавлен: 9 лет назад | Торрент скачан:86 раз
Скачать  

25-06-2012 18:29 Секса много не бывает Скачать торрент  


Секса много не бывает / Un heureux evenement
«В ожидании чуда...»
Страна: Франция, Бельгия
Студия: Angoa-Agicoa, Canal+ [fr], France 2 Cinéma, France Télévision, Gaumont, Le Tax Shelter du Gouvernement Fédéral de Belgique, Mandarin Films, Région Wallone, Radio Télévision Belge Francofone (RTBF), Scope Pictures, TPS Star
Жанр: драма, комедия
Год выпуска: 2011
Мировая премьера: 27 августа 2011
Российская премьера: 7 июня 2012
Дата выхода DVD: 28 июня 2012
Продолжительность: 01:45:05
Перевод: Профессиональный (многоголосый закадровый) [Лицензия]
Cубтитры: русские
Оригинальная аудиодорожка: французский
Режиссер: Реми Безансон / Remi Bezancon
В ролях: Луиз Бургуан, Пио Мармай, Жозиан Баласко, Тьерри Фремон, Габриель Лазюр, Фирмин Ришар, Анаис, Дафна Бюрки, Ланник Готри, Жерар Любин, Николь Вальберг, Луи-До де Ланкесэ, Офелия Керинг, Амели Гленн, Доминик Байенс, Мишель Набокофф, Айссату Диоп, Анник Джонсон, Давид Фонкинос, Эрика Сэйнт, Виктория Бекер, Джульетт Бекер
Описание: Семейная пара в ожидании рождения ребенка переживает эмоциональный подъем
Бонусы: Трейлер, создатели и исполнители, смотрите на DVD, фотогалерея

Релиз группы:
Качество: DVD9 R5
Формат: DVD-Video
Видео кодек: MPEG2
Аудио кодек: AC3
Видео: PAL 16:9 (720x576(0.630)) MPEG Video, 25,000 кадр/сек, 6537 Кбит/сек
Аудио #1: Russian (Dolby AC3, 6 ch) 448 Кбит/сек, 48,0 КГц
Аудио #2: Francais (Dolby AC3, 6 ch) 448 Кбит/сек, 48,0 КГц



Title:
Size: 6.42 Gb ( 6 734 722,00 KBytes ) - DVD-9
Enabled regions: 1, 2, 3, 4, 5, 6, 7, 8

VTS_01 :
Play Length: 00:00:05
Video: PAL 4:3 (720x576) VBR
Subtitles:
English
English

VTS_02 :
Play Length: 00:00:09
Video: PAL 16:9 (720x576) VBR, Auto Letterboxed
Audio:
Not specified (Dolby AC3, 2 ch)

VTS_03 :
Play Length: 00:01:50
Video: PAL 16:9 (720x576) VBR, Auto Letterboxed
Audio:
Not specified (Dolby AC3, 2 ch)
Not specified (Dolby AC3, 2 ch)
Subtitles:
Not specified

VTS_04 :
Play Length: 01:45:05
Video: PAL 16:9 (720x576) VBR, Auto Letterboxed
Audio:
Russian (Dolby AC3, 6 ch)
Francais (Dolby AC3, 6 ch)
Subtitles:
Russian

VTS_05 :
Play Length: 00:02:13
Video: PAL 16:9 (720x576) VBR, Auto Letterboxed
Audio:
Not specified (Dolby AC3, 2 ch)
Not specified (Dolby AC3, 2 ch)
Subtitles:
Not specified

VTS_06 :
Play Length: 00:02:21
Video: PAL 16:9 (720x576) VBR, Auto Letterboxed
Audio:
Not specified (Dolby AC3, 2 ch)
Subtitles:
Not specified

VTS_07 :
Play Length: 00:02:08
Video: PAL 16:9 (720x576) VBR, Auto Letterboxed
Audio:
Not specified (Dolby AC3, 2 ch)
Subtitles:
Not specified

VTS_08 :
Play Length: 00:02:21
Video: PAL 16:9 (720x576) VBR, Auto Letterboxed
Audio:
Not specified (Dolby AC3, 2 ch)
Not specified (Dolby AC3, 2 ch)
Subtitles:
Not specified

VTS_09 :
Play Length: 00:01:54
Video: PAL 16:9 (720x576) VBR, Auto Letterboxed
Audio:
Not specified (Dolby AC3, 2 ch)
Subtitles:
Not specified

VTS_10 :
Play Length: 00:02:33
Video: PAL 16:9 (720x576) VBR, Auto Letterboxed
Общее
Полное имя : J:\Новинки 2012\Seksa.mnogo.ne.byvaet.2011.DVD9\VIDEO_TS\VTS_04_1.VOB
Формат : MPEG-PS
Размер файла : 1024 Мбайт
Продолжительность : 18 м.
Режим общего битрейта : Переменный
Общий поток : 7583 Кбит/сек

Видео
Идентификатор : 224 (0xE0)
Формат : MPEG Video
Версия формата : Version 2
Профиль формата : Main@Main
Параметр BVOP формата : Да
Параметр матрицы формата : По умолчанию
Параметр GOP формата : M=3, N=12
Продолжительность : 18 м.
Вид битрейта : Переменный
Битрейт : 6537 Кбит/сек
Максимальный битрейт : 9000 Кбит/сек
Ширина : 720 пикселей
Высота : 576 пикселей
Соотношение сторон : 16:9
Частота кадров : 25,000 кадров/сек
Стандарт вещания : PAL
Цветовое пространство : YUV
Субдискретизация насыщенности : 4:2:0
Битовая глубина : 8 бит
Тип развёртки : Прогрессивная
Метод сжатия : С потерями
Бит/(Пиксели*Кадры) : 0.630
Размер потока : 883 Мбайт (86%)

Аудио #1
Идентификатор : 189 (0xBD)-128 (0x80)
Формат : AC-3
Формат/Информация : Audio Coding 3
Расширение режима : CM (complete main)
Параметр Endianness формата : Big
Режим смешивания : DVD-Video
Продолжительность : 18 м.
Вид битрейта : Постоянный
Битрейт : 448 Кбит/сек
Каналы : 6 каналов
Расположение каналов : Front: L C R, Side: L R, LFE
Частота : 48,0 КГц
Битовая глубина : 16 бит
Метод сжатия : С потерями
Размер потока : 60,5 Мбайт (6%)

Аудио #2
Идентификатор : 189 (0xBD)-129 (0x81)
Формат : AC-3
Формат/Информация : Audio Coding 3
Расширение режима : CM (complete main)
Параметр Endianness формата : Big
Режим смешивания : DVD-Video
Продолжительность : 18 м.
Вид битрейта : Постоянный
Битрейт : 448 Кбит/сек
Каналы : 6 каналов
Расположение каналов : Front: L C R, Side: L R, LFE
Частота : 48,0 КГц
Битовая глубина : 16 бит
Метод сжатия : С потерями
Размер потока : 60,5 Мбайт (6%)

Текст
Идентификатор : 189 (0xBD)-32 (0x20)
Формат : RLE
Формат/Информация : Run-length encoding
Режим смешивания : DVD-Video










pb.wtf



Скачать Секса много не бывает через торрент http://i43.fastpic.ru/big/2012/0625/f1/ed529f2f29382f553247f2a67d9a2ff1.jpg Скачать фильм Секса много не бывает через торрент бесплантно в хорошем качестве Описание: Семейная пара в ожидании рождения ребенка переживает эмоциональный подъемБонусы: Трейлер, создатели и исполнители, смотрите на ... 5 10 8
Info! Золотая раздача, скачанное не засчитывается.
Торрент: Зарегистрирован [2012-06-25 18:29] · скачан: 86 раз
Статус: √ проверено
Размер: 6.42 GB
Как cкачать? Как скачать Секса много не бывает через торрент | UTorrent

28-11-2019 20:33  

Отключить всю рекламу на сайте

25-06-2012 20:18 Секса много не бывает Скачать торрент  

Хороший постер ^_^pb.wtf



    Дорогой пользователь! Огромная просьба, поблагодарите релизера, оцените раздачу и оставьте свои комментарий, если Вы скачали Секса много не бывает через торрент бесплатно! Внесите свою лепту в развитие PiratBit!
    Комментировать посты могут только пользователи прошедшие не сложную регистрацию
    Показать сообщения:    

    Секса много не бывает через торрент
    Скачать бесплатно Секса много не бывает
    Секса много не бывает скачать торрент
    Секса много не бывает смотреть онлайн
    Cкачать фильм Секса много не бывает бесплатно
    Секса много не бывает скачать торрент в хорошем качестве
    Секса много не бывает смотреть онлайн бесплатно в хорошем качестве


    Вы не можете начинать темы
    Вы не можете отвечать на сообщения
    Вы не можете редактировать свои сообщения
    Вы не можете удалять свои сообщения
    Вы не можете голосовать в опросах
    Вы не можете прикреплять файлы к сообщениям
    Вы можете скачивать файлы