Ссылка на приватное зеркало всего за 1$. Внимание количество ограничено!!!

iTunes

iTunes

iTunes

1

iTunes

iTunes

iTunes

iTunes

iTunes

30
pack

$ от Little Big

ВАЖНО

!!Акция!!

Alien_RageХит недели

RePack

Resident Evil 21

ИГРА 18+

pack

RePack

jed

!!Акция!!

Alien_Rage

RePack

fifa19

RePack

Assassins Creed: Odyssey

RePack

NEED FOR SPEED™ PAYBACK

4 сезон

9 сезон

Бесстыжие 9 сезон

Все сериалы

все сериалы на PB.wtf

RePack

FAR CRY 5
  

Спеши любить / Памятная прогулка / A Walk To Remember (Адам Шенкман / Adam Shankman) [2002, США, мелодрама, драма, HDTV 1080p] DUB + MVO + VO + Original + Sub rus eng pb.wtf

Спеши любить через торрент pb.wtf

Размер: 9.92 GB | Добавлен: 8 лет назад | Торрент скачан:89 раз
Скачать  

27-06-2012 07:21 Спеши любить Скачать торрент  

Спеши любить / A Walk To Remember

Год выпуска: 2002
Страна: США
Жанр: Мелодрама, Драма
Продолжительность: 01:42:04
Перевод: Профессиональный (дублированный), профессиональный (многоголосый закадровый), любительский (одноголосый закадровый)
Cубтитры: русские, английские (SRT)

Режиссер: Адам Шенкман
Продюссеры: Денис Ди Нови, Е.К. Гэйлорд II, Билл Джонсон, Кэйси Ла Скала, Хант Лоури, Эдвард МакДоннел, Мэттью Мизел
Сценарий: Николас Спаркс, Карен Джансзен

Бюджет: 11 000 000$
Кассовые сборы в мире: 47 494 916$
Кассовые сборы в США: 41 281 092$
Премьера в мире: 23.01.2002
Премьера в России: 15.08.2002
Рейтинг MPAA: PG (Рекомендуется присутствие родителей)

В ролях: Шэйн Уэст, Мэнди Мур, Питер Койот, Дэрил Ханна, Лорен Джерман, Клэйн Кроуфорд, Аль Томпсон, Пас де ла Уэрта, Джонатан Паркс Джордан, Мэтт Лутс, Дэвид Эндрюс, Дэвид Ли Смит, Ксавьер Эрнандез, Мариса Миллер, Паула Джонс, Рик Смит, Аль Батлер, Сет Ховард, Джулия Энн Уэст, Фрэнсис Э. Дэвис ...

Описание: Лэндон Картер - кумир своей школы, он независим, красив и жесток к изгоям. И конечно, он не замечает невзрачную Джэйми, думающую только об учебе. После очередной дурацкой выходки Картера заставляют заниматься со студентами и играть в школьной пьесе.
Тут уж ему не обойтись без помощи скромной отличницы. Джэйми соглашается помочь Лэндону, но только если он пообещает, что не будет влюбляться в нее. Самонадеянный парень охотно дает клятву, но вскоре он убедится, что сдержать ее будет очень непросто...

Качество: HDTV
Формат: MKV
Видео кодек: x264
Аудио кодек: AC3
Видео: 1920x1080p, 23,976 fps, x264, 12500 kbps
Аудио#1: Русский AC3 5.1, 48 khz, 448 kbps |Дубляж|
Аудио#2: Русский AC3 5.1, 48 khz, 384 kbps |Многоголосый|
Аудио#3: Русский AC3 2.0, 48 khz, 192 kbps |Одноголосый, моно|
Аудио#4: Английский AC3 5.1, 48 khz, 384 kbps

- Картина была отснята всего за 39 дней, несмотря на то, что все это время Мэнди Мур могла сниматься лишь по 10 часов в сутки (в 2001 году актриса еще не достигла совершеннолетия).
- Фотографии Джэми на камине в Доме Салливанов являются фотографиями Мэнди Мур в детстве.
- События новеллы разворачиваются в 1958 году, однако создатели картины решили перенести действие в наше время.
- Джэми отдает Лэндону книгу своей матери со словами: «Не волнуйся, это не Библия». В одноименной новелле Николаса Спаркса Джэми отдает ему именно Библию, в тексте которой подчеркнуты любимые отрывки матери Джэми.
- Шэйну Уэсту настолько приглянулась машина, задействованная в процессе съемок, что после завершения работы он решил потратить 5 тысяч долларов на ее приобретение.
- После выхода картины один из поклонников Мэнди Мур назвал в ее честь звезду, как и в фильме.
- Город Бофорт, в котором происходят события фильма, действительно существует и находится в Северной Каролине.
- Сестра Николаса Спаркса умерла от рака, она является прототипом Джэйми Салливан.
- Режиссер фильма, Адам Шенкман, появляется в камео. Он играет санитара, везущего коляску, в которой сидит героиня Мэнди Мур.
- В первоначальном варианте сценария в предпоследней сцене фильма, когда Лэндон приезжает к отцу Джэйми, он отдает ему обручальное кольцо, говоря, что женился.






Формат : Matroska
Версия формата : Version 2
Размер файла : 9,92 Гбайт
Продолжительность : 1 ч. 42 м.
Общий поток : 13,9 Мбит/сек
Название фильма : Released by shurikello
Дата кодирования : UTC 2011-04-17 11:49:03
Программа кодирования : mkvmerge v3.4.0 ('Rapunzel') сборка от May 15 2010 09:38:20
Библиотека кодирования : libebml v0.8.0 + libmatroska v0.9.0

Видео
Идентификатор : 1
Формат : AVC
Формат/Информация : Advanced Video Codec
Профиль формата : High@L4.1
Параметр CABAC формата : Да
Параметр ReFrames формата : 4 кадра
Идентификатор кодека : V_MPEG4/ISO/AVC
Продолжительность : 1 ч. 42 м.
Битрейт : 12,5 Мбит/сек
Ширина : 1920 пикс.
Высота : 1080 пикс.
Соотношение сторон : 16:9
Частота кадров : 23,976 кадр/сек
Цветовое пространство : YUV
Подвыборка цветности : 4:2:0
Битовая глубина : 8 бит
Тип развёртки : Прогрессивная
Бит/(Пиксели*Кадры) : 0.251
Размер потока : 8,71 Гбайт (88%)
Библиотека кодирования : x264 core 115 r1936+503 e048045
Настройки программы : cabac=1 / ref=4 / deblock=1:-3:-3 / analyse=0x3:0x133 / me=umh / subme=10 / psy=1 / fade_compensate=0.00 / psy_rd=1.00:0.00 / mixed_ref=1 / me_range=32 / chroma_me=1 / trellis=2 / 8x8dct=1 / cqm=0 / deadzone=21,11 / fast_pskip=0 / chroma_qp_offset=-2 / threads=3 / sliced_threads=0 / nr=0 / decimate=1 / interlaced=0 / bluray_compat=0 / constrained_intra=0 / fgo=0 / bframes=8 / b_pyramid=2 / b_adapt=2 / b_bias=0 / direct=3 / weightb=1 / open_gop=0 / weightp=2 / keyint=250 / keyint_min=23 / scenecut=40 / intra_refresh=0 / rc=2pass / mbtree=0 / bitrate=12500 / ratetol=1.0 / qcomp=0.60 / qpmin=0 / qpmax=69 / qpstep=4 / cplxblur=20.0 / qblur=0.5 / ip_ratio=1.40 / pb_ratio=1.30 / aq=1:1.00
Язык : English

Аудио #1
Идентификатор : 2
Формат : AC-3
Формат/Информация : Audio Coding 3
Расширение режима : CM (complete main)
Идентификатор кодека : A_AC3
Продолжительность : 1 ч. 42 м.
Вид битрейта : Постоянный
Битрейт : 448 Кбит/сек
Каналы : 6 каналов
Расположение каналов : Front: L C R, Side: L R, LFE
Частота : 48,0 КГц
Битовая глубина : 16 бит
Метод сжатия : С потерями
Размер потока : 327 Мбайт (3%)
Заголовок : Дубляж, AC3 5.1, 448 kbps
Язык : Russian

Аудио #2
Идентификатор : 3
Формат : AC-3
Формат/Информация : Audio Coding 3
Расширение режима : CM (complete main)
Идентификатор кодека : A_AC3
Продолжительность : 1 ч. 42 м.
Вид битрейта : Постоянный
Битрейт : 384 Кбит/сек
Каналы : 6 каналов
Расположение каналов : Front: L C R, Side: L R, LFE
Частота : 48,0 КГц
Битовая глубина : 16 бит
Метод сжатия : С потерями
Размер потока : 280 Мбайт (3%)
Заголовок : Многоголосый, AC3 5.1, 384 kbps
Язык : Russian

Аудио #3
Идентификатор : 4
Формат : AC-3
Формат/Информация : Audio Coding 3
Расширение режима : CM (complete main)
Идентификатор кодека : A_AC3
Продолжительность : 1 ч. 42 м.
Вид битрейта : Постоянный
Битрейт : 192 Кбит/сек
Каналы : 2 канала
Расположение каналов : Front: L R
Частота : 48,0 КГц
Битовая глубина : 16 бит
Метод сжатия : С потерями
Размер потока : 140 Мбайт (1%)
Заголовок : Одноголосый, AC3 2.0, 192 kbps
Язык : Russian

Аудио #4
Идентификатор : 5
Формат : AC-3
Формат/Информация : Audio Coding 3
Расширение режима : CM (complete main)
Идентификатор кодека : A_AC3
Продолжительность : 1 ч. 42 м.
Вид битрейта : Постоянный
Битрейт : 384 Кбит/сек
Каналы : 6 каналов
Расположение каналов : Front: L C R, Side: L R, LFE
Частота : 48,0 КГц
Битовая глубина : 16 бит
Метод сжатия : С потерями
Размер потока : 280 Мбайт (3%)
Заголовок : AC3 5.1, 384 kbps
Язык : English

Текст #1
Идентификатор : 6
Формат : UTF-8
Идентификатор кодека : S_TEXT/UTF8
Идентификатор кодека/Информация : UTF-8 Plain Text
Язык : Russian

Текст #2
Идентификатор : 7
Формат : UTF-8
Идентификатор кодека : S_TEXT/UTF8
Идентификатор кодека/Информация : UTF-8 Plain Text
Язык : English

pb.wtf



Скачать Спеши любить через торрент http://cf2.imgobject.com/t/p/w342/ejOF4V1YZWzFU6pXLEhfyTp3D3c.jpg Скачать фильм Спеши любить через торрент бесплантно в хорошем качестве Описание: Лэндон Картер - кумир своей школы, он независим, красив и жесток к изгоям. И конечно, он не замечает невзрачную Джэйми, думающую ... 9 10 3
Info! Золотая раздача, скачанное не засчитывается.
Торрент: Зарегистрирован [2012-06-27 07:21] · скачан: 89 раз
Статус: √ проверено
Размер: 9.92 GB
Как cкачать? Как скачать Спеши любить через торрент | qTorrent



Последний раз редактировалось: AARRSSEENN (2014-11-02 18:57), всего редактировалось 1 раз

28-11-2019 20:33  

Отключить всю рекламу на сайте

27-06-2012 09:16 Спеши любить Скачать торрент  

Фильм супер. Еще и сразу золото!
Двойное спасибо релизеру!pb.wtf



28-12-2012 03:10 Спеши любить Скачать торрент  

отличный фильм советую всем !!pb.wtf



    Дорогой пользователь! Огромная просьба, поблагодарите релизера, оцените раздачу и оставьте свои комментарий, если Вы скачали Спеши любить через торрент бесплатно! Внесите свою лепту в развитие PiratBit!
    Комментировать посты могут только пользователи прошедшие не сложную регистрацию
    Показать сообщения:    

    Спеши любить через торрент
    Скачать бесплатно Спеши любить
    Спеши любить скачать торрент
    Спеши любить смотреть онлайн
    Cкачать фильм Спеши любить бесплатно
    Спеши любить скачать торрент в хорошем качестве
    Спеши любить смотреть онлайн бесплатно в хорошем качестве


    Вы не можете начинать темы
    Вы не можете отвечать на сообщения
    Вы не можете редактировать свои сообщения
    Вы не можете удалять свои сообщения
    Вы не можете голосовать в опросах
    Вы не можете прикреплять файлы к сообщениям
    Вы можете скачивать файлы