Ссылка на приватное зеркало нашего сайта всего за 1$. Внимание количество ограничено!!!

2 сезон

iTunes

1 сезон

1

iTunes

iTunes

iTunes

1 сезон

RePack

30

ИГРА 18+

pack

ВАЖНО

!!Акция!!

Alien_RageХит недели

RePack

MK11
pack

Забери бонус

RePack

jed

!!Акция!!

Alien_Rage

RePack

fifa19

RePack

Assassins Creed: Odyssey

RePack

NEED FOR SPEED™ PAYBACK

4 сезон

9 сезон

Бесстыжие 9 сезон

Все сериалы

все сериалы на PB.wtf

RePack

FAR CRY 5
  

Информатор! / The Informant! (Стивен Содерберг) [2009 г., триллер, драма, комедия, BDRip (720p), Профессиональный (многоголосый)] pb.wtf

Информатор! через торрент pb.wtf

Размер: 4.66 GB | Добавлен: 8 лет 3 мес. назад | Торрент скачан:56 раз
Скачать  

01-07-2012 13:07 Информатор! Скачать торрент  

Информатор! / The Informant!

Год выпуска: 2009
Страна: США
Жанр: триллер, драма, комедия
Продолжительность: 01:37:48
Перевод: Профессиональный (многоголосый)

Режиссер: Стивен Содерберг
Продюссер: Ховард Браунштейн, Курт Эйченвальд, Дженнифер Фокс
Сценарий: Скотт Бёрнс, Курт Эйченвальд

Бюджет: $22 000 000
Премьера в мире: 7 сентября 2009,




В ролях: Мэтт Дэймон, Лукас МакХью Кэролл, Эдди Джемисон, Расти Швиммер, Крэйг Риччи Шейнак, Том Папа, Рик Овертон, Мелани Лински, Томас Ф. Уилсон, Скотт Бакула

Описание: И о чем только думал Марк Уитакер? Будучи перспективным сотрудником агропромышленной корпорации «Арчер Дэниелс Мидланд» (АДМ), Уитакер неожиданно превращается в стукача.

Несмотря на то, что Уитакер докладывает ФБР о том, что мультинациональная компания, в которой он трудится, искусственно поддерживает слишком высокие цены на продукцию, сам себя он считает чуть ли не героем, заботящимся об интересах простых граждан и достойным повышения. Но для того, чтобы воплотить его мечты в жизнь, ФБР нужны доказательства, вот почему Уитакер с радостью соглашается надеть на себя специальную подслушивающую аппаратуру, а в кейс спрятать магнитофон, воображая себя своеобразным спецагентом, выполняющим сверхсекретное задание.

Доп. информация: Ради роли в фильме Мэтт Дэймон набрал 15 килограмм.
В перерывах между съемками Дэймон постоянно ел разные вкусности, которые приносили люди со съемочной группы, а в перерывах между едой пил шоколадные коктейли.

Качество: BDRip (720p)
Формат: MKV
Видео кодек: H.264
Видео: MPEG4 Video (H264) 1280x720 23.976fps 4 950 Kbps
Аудио#1: Русский (Многоголосый), AC3 Dolby Digital, 3/2 (L,C,R,l,r) + LFE ch, ~384.00 kbps | Лицензия!
Аудио#2: Английский (Оригинал), AC3 Dolby Digital, 3/2 (L,C,R,l,r) + LFE ch, ~640.00 kbps
Аудио#3: Английский (Комментарии режиссёра), AC3 Dolby Digital, 2/0 (L,R) ch, ~192.00 kbps
Cубтитры: Русский, Английский




General
Unique ID : 237193715183447562335251637346186637786 (0xB271D90DF52489229CCC7060C5C931DA)
Complete name : D:\Фильм\Informant!.2009.BD.Rip.720p.mkv
Format : Matroska
Format version : Version 2
File size : 4.66 GiB
Duration : 1h 48mn
Overall bit rate : 6 168 Kbps
Encoded date : UTC 2010-02-04 00:42:22
Writing application : mkvmerge v3.1.0 ('Happy up here') built on Jan 19 2010 12:09:24
Writing library : libebml v0.7.9 + libmatroska v0.8.1

Video
ID : 1
Format : AVC
Format/Info : Advanced Video Codec
Format profile : High@L4.1
Format settings, CABAC : Yes
Format settings, ReFrames : 8 frames
Codec ID : V_MPEG4/ISO/AVC
Duration : 1h 48mn
Bit rate : 4 950 Kbps
Width : 1 280 pixels
Height : 720 pixels
Display aspect ratio : 16:9
Frame rate : 23.976 fps
Color space : YUV
Chroma subsampling : 4:2:0
Bit depth : 8 bits
Scan type : Progressive
Bits/(Pixel*Frame) : 0.224
Stream size : 3.65 GiB (78%)
Writing library : x264 core 68 r1179M 96e2229
Encoding settings : cabac=1 / ref=8 / deblock=1:-3:-3 / analyse=0x3:0x133 / me=umh / subme=9 / psy_rd=1.1:0.0 / mixed_ref=1 / me_range=32 / chroma_me=1 / trellis=2 / 8x8dct=1 / cqm=0 / deadzone=21,11 / chroma_qp_offset=-4 / threads=12 / nr=0 / decimate=1 / mbaff=0 / bframes=5 / b_pyramid=1 / b_adapt=2 / b_bias=0 / direct=1 / wpredb=1 / keyint=250 / keyint_min=25 / scenecut=40 / rc=2pass / bitrate=4950 / ratetol=1.0 / qcomp=0.60 / qpmin=10 / qpmax=51 / qpstep=4 / cplxblur=20.0 / qblur=0.5 / vbv_maxrate=50000 / vbv_bufsize=50000 / ip_ratio=1.40 / pb_ratio=1.30 / aq=1:1.00
Language : English
Default : Yes
Forced : No

Audio #1
ID : 2
Format : AC-3
Format/Info : Audio Coding 3
Mode extension : CM (complete main)
Format settings, Endianness : Big
Codec ID : A_AC3
Duration : 1h 48mn
Bit rate mode : Constant
Bit rate : 384 Kbps
Channel(s) : 6 channels
Channel positions : Front: L C R, Side: L R, LFE
Sampling rate : 48.0 KHz
Bit depth : 16 bits
Compression mode : Lossy
Stream size : 297 MiB (6%)
Title : AC3 5.1 384 kbps
Language : Russian
Default : Yes
Forced : No

Audio #2
ID : 3
Format : AC-3
Format/Info : Audio Coding 3
Mode extension : CM (complete main)
Format settings, Endianness : Big
Codec ID : A_AC3
Duration : 1h 48mn
Bit rate mode : Constant
Bit rate : 640 Kbps
Channel(s) : 6 channels
Channel positions : Front: L C R, Side: L R, LFE
Sampling rate : 48.0 KHz
Bit depth : 16 bits
Compression mode : Lossy
Stream size : 496 MiB (10%)
Title : AC3 5.1 640 kbps
Language : English
Default : No
Forced : No

Audio #3
ID : 4
Format : AC-3
Format/Info : Audio Coding 3
Format profile : Dolby Digital
Mode extension : CM (complete main)
Format settings, Endianness : Big
Codec ID : A_AC3
Duration : 1h 48mn
Bit rate mode : Constant
Bit rate : 192 Kbps
Channel(s) : 2 channels
Channel positions : Front: L R
Sampling rate : 48.0 KHz
Bit depth : 16 bits
Compression mode : Lossy
Stream size : 149 MiB (3%)
Title : Commentary with Director Steven Soderbergh and Crew AC3 2.0 192 kbps
Language : English
Default : No
Forced : No

Text #1
ID : 5
Format : UTF-8
Codec ID : S_TEXT/UTF8
Codec ID/Info : UTF-8 Plain Text
Language : Russian
Default : No
Forced : No

Text #2
ID : 6
Format : UTF-8
Codec ID : S_TEXT/UTF8
Codec ID/Info : UTF-8 Plain Text
Language : English
Default : No
Forced : No

Text #3
ID : 7
Format : UTF-8
Codec ID : S_TEXT/UTF8
Codec ID/Info : UTF-8 Plain Text
Title : Tol'ko nadpisi
Language : Russian
Default : Yes
Forced : No

pb.wtf



Скачать Информатор! через торрент http://pic.kartinco.top/images/1/2tlig3n55m.jpg Скачать фильм Информатор! через торрент бесплантно в хорошем качестве Описание: И о чем только думал Марк Уитакер? Будучи перспективным сотрудником агропромышленной корпорации «Арчер Дэниелс Мидланд» (АДМ), ... 5 10 1
Info! Золотая раздача, скачанное не засчитывается.
Торрент: Зарегистрирован [2012-07-01 13:07] · скачан: 56 раз
Статус: √ проверено
Размер: 4.66 GB
Как cкачать? Как скачать Информатор! через торрент | qTorrent

% Раздел Тема Автор DL S | L
Фильмы 2009 [ 1.36 GB ] Информатор! / The Informant! [2009 BDRip MVO лицензия] maygli Скачать
1 | 0
Фильмы 2006-2008 [ 1.45 GB ] Информаторы / The Informers [2008 BDRip MVO лицензия] maygli Скачать
1 | 0
Фильмы 2009 [ 701 MB ] Информаторы / The Informers [2009 BDRip Лицензие] serega_777 Скачать
1 | 0
Фильмы (DVD фильмы) [ 4.29 GB ] Информаторы / The Informers [2008 Германия DVD5] R5 «West Video» voovaz Скачать
1 | 0
Фильмы [HD 720p, 1080p] (Хороший звук DUB, MVO) [ 4.62 GB ] Информаторы / Informers The [2008 BDRip ] Shmel Скачать
1 | 0
Фильмы 2006-2008 [ 1.37 GB ] Информаторы / The Informers [2008 HDRip лицензия] SD Скачать
1 | 0
Фильмы [HD 720p, 1080p] (Хороший звук DUB, MVO) [ 8.58 GB ] Информаторы / The Informers [2008 BDRip1080] Jasti Скачать
1 | 0

28-11-2019 20:33  

Отключить всю рекламу на сайте

01-07-2012 13:50 Информатор! Скачать торрент  

страдалец, блин: "пил шоколадные коктейли, жрал вкусности" - и всё ради роли в фильмеpb.wtf



01-07-2012 14:10 Информатор! Скачать торрент  

Нормальная комедия, своеобразная, но прикольная.pb.wtf



    Дорогой пользователь! Огромная просьба, поблагодарите релизера, оцените раздачу и оставьте свои комментарий, если Вы скачали Информатор! через торрент бесплатно! Внесите свою лепту в развитие PiratBit!
    Комментировать посты могут только пользователи прошедшие не сложную регистрацию
    Показать сообщения:    

    Информатор! через торрент
    Скачать бесплатно Информатор!
    Информатор! скачать торрент
    Информатор! смотреть онлайн
    Cкачать фильм Информатор! бесплатно
    Информатор! скачать торрент в хорошем качестве
    Информатор! смотреть онлайн бесплатно в хорошем качестве


    Вы не можете начинать темы
    Вы не можете отвечать на сообщения
    Вы не можете редактировать свои сообщения
    Вы не можете удалять свои сообщения
    Вы не можете голосовать в опросах
    Вы не можете прикреплять файлы к сообщениям
    Вы можете скачивать файлы