1 сезон

3 сезон

iTunes

1

iTunes

MVO

iTunes

13

1 сезон

RePack

30

Deluxe

pack

Лицензия

ВАЖНО

ИГРА 18+

pack

RePack

MK11

RePack

jed

RePack

fifa19

RePack

RDR2

RePack

NEED FOR SPEED™ PAYBACK

4 сезон

9 сезон

Бесстыжие 9 сезон

Все сериалы

все сериалы на PB.wtf

RePack

FAR CRY 5

Anonymous, добрый вечер, мы катастрофически не успеваем собрать деньги на оплату серверов, помогите нам пожалуйста 5,10,15р., для нас важна любая помощь . В качестве благодарности мы отключим Вам всю рекламу на сайте (укажите свой ник в строку Ваше имя)!

×
  
Magnet ссылка

Прoпoвeдник c пулeмeтoм / Масhinе Gun Prеасhеr (Maрк Фoрcтeр / Маrс Fоrstеr) [2011, США, боевик, драма, криминал, биография, DVD9] R5 DUB Sub ru + Original Eng pb.wtf

Прoпoвeдник c пулeмeтoм через торрент pb.wtf

Размер: 7.32 GB | Добавлен: 9 лет назад | Торрент скачан:33 раза
Скачать  

02-07-2012 05:41 Прoпoвeдник c пулeмeтoм Скачать торрент  

Проповедник с пулеметом / Machine Gun Preacher
«Hope is the greatest weapon of all»
Страна: США
Студия: 1984 Private Defense Contractors, Apparatus Productions, GG Filmz, ITS Capital, Merlina Entertainment, MGP Productions, Moonlighting Films South Africa, Mpower Pictures, Relativity Media, Safady Entertainment, Virgin Produced
Жанр: боевик, драма, криминал, биография
Год выпуска: 2011
Мировая премьера: 11 сентября 2011
Дата выхода DVD: 14 июня 2012, «Вольга»
Дата выхода Blu-Ray: 14 июня 2012, «Вольга»
Продолжительность: 02:03:33
Перевод: Профессиональный (дублированный) [Лицензия]
Cубтитры: русские
Оригинальная аудиодорожка: английский
Режиссер: Марк Форстер / Marc Forster
В ролях: Джерард Батлер, Мишель Монахэн, Кэти Бейкер, Майкл Шеннон, Мадлен Кэрролл, Соулеймейн Сай Савейн, Грант Р. Краузе, Ривис Грэхэм, Питер Кэри, Барбара Ковен
Описание: Байкер Сэм Чайлдерс имел множество проблем с законом, но после выхода из тюрьмы, вняв мольбам жены Линн, начал посещать церковь. Бывшего преступника словно подменили: он стал примерным прихожанином, основал строительную компанию и сам возвел с нуля протестантский храм для тех, кого благополучные американцы презрительно именовали «отбросами общества»… Ровное течение жизни Сэма меняется после миссионерской поездки в Уганду и Судан.
Проникнувшись состраданием к африканским детям, он решает основать приют, в котором те чувствовали бы себя в безопасности от боевиков Господней армии Сопротивления, набирающих себе солдат и сексуальных рабынь даже среди малолетних. Своих подопечных, если потребуется, Сэм готов защищать с оружием в руках. Однако в своем рвении Чайлдерс забывает о том, что обратной стороной любого благого порыва может стать одержимость…

Бонусы: Марк Форстер о фильме, как создавалась музыка, музыкальный клип

Релиз группы:
Качество: DVD9 R5
Формат: DVD-Video
Видео кодек: MPEG2
Аудио кодек: AC3 + DTS
Видео: PAL 16:9 (720x576(0.503)) MPEG Video, 25,000 кадр/сек, 5217 Кбит/сек
Аудио #1: Russian (Dolby AC3, 5 ch) 256 Кбит/сек, 48,0 КГц
Аудио #2: Russian (DTS, 6 ch) 768 Кбит/сек, 48,0 КГц
Аудио #3: English (Dolby AC3, 5 ch) 256 Кбит/сек, 48,0 КГц

Title: New Volume
Size: 7.32 Gb ( 7 678 226 KBytes ) - DVD-9
Enabled regions: 1, 2, 3, 4, 5, 6, 7, 8
VTS_01 :
Play Length: 00:00:10
Video: PAL 16:9 (720x576) VBR, Auto Pan&Scan, Auto Letterboxed
VTS_02 :
Play Length: 00:00:06
Video: PAL 16:9 (720x576) VBR, Auto Pan&Scan, Auto Letterboxed
VTS_03 :
Play Length: 02:03:33
Video: PAL 16:9 (720x576) VBR, Auto Pan&Scan, Auto Letterboxed
Audio:
Not specified (Dolby AC3, 5 ch)
Not specified (DTS, 6 ch)
Not specified (Dolby AC3, 5 ch)
Subtitles:
Not specified
Not specified
Not specified
VTS_04 :
Play Length: 00:17:50
Video: PAL 16:9 (720x576) VBR, Auto Pan&Scan, Auto Letterboxed
Audio:
Not specified (Dolby AC3, 2 ch)
Not specified (Dolby AC3, 2 ch)
Not specified (Dolby AC3, 2 ch)
Subtitles:
Not specified
Not specified
Not specified
VTS_05 :
Play Length: 00:13:24
Video: PAL 16:9 (720x576) VBR, Auto Pan&Scan, Auto Letterboxed
Audio:
Not specified (Dolby AC3, 2 ch)
Not specified (Dolby AC3, 2 ch)
Not specified (Dolby AC3, 2 ch)
Subtitles:
Not specified
Not specified
Not specified
VTS_06 :
Play Length: 00:03:35
Video: PAL 16:9 (720x576) VBR, Auto Pan&Scan, Auto Letterboxed
Audio:
Not specified (Dolby AC3, 2 ch)
Not specified (Dolby AC3, 2 ch)
Not specified (Dolby AC3, 2 ch)
Subtitles:
Not specified
Not specified
Not specified
VTS_07 :
Play Length: 00:02:03
Video: PAL 16:9 (720x576) VBR, Auto Pan&Scan, Auto Letterboxed
Audio:
Not specified (Dolby AC3, 6 ch)
Not specified (Dolby AC3, 6 ch)
Not specified (Dolby AC3, 6 ch)
Subtitles:
Not specified
Not specified
Not specified
VTS_08 :
Play Length: 00:02:31
Video: PAL 16:9 (720x576) VBR, Auto Pan&Scan, Auto Letterboxed
Audio:
Not specified (Dolby AC3, 2 ch)
Not specified (Dolby AC3, 2 ch)
Not specified (Dolby AC3, 2 ch)
Subtitles:
Not specified
Not specified
Not specified
VTS_09 :
Play Length: 00:02:00
Video: PAL 16:9 (720x576) VBR, Auto Pan&Scan, Auto Letterboxed
Audio:
Not specified (Dolby AC3, 2 ch)
Not specified (Dolby AC3, 2 ch)
Not specified (Dolby AC3, 2 ch)
Subtitles:
Not specified
Not specified
Not specified
Общее
Полное имя : J:\Новинки 2012\Propovednik.s.pulemetom.2011.DVD9\VIDEO_TS\VTS_03_3.VOB
Формат : MPEG-PS
Размер файла : 1024 Мбайт
Продолжительность : 21 м.
Режим общего битрейта : Переменный
Общий поток : 6616 Кбит/сек
Видео
Идентификатор : 224 (0xE0)
Формат : MPEG Video
Версия формата : Version 2
Профиль формата : Main@Main
Параметр BVOP формата : Да
Параметр матрицы формата : Выборочная
Параметр GOP формата : M=3, N=15
Продолжительность : 21 м.
Вид битрейта : Переменный
Битрейт : 5217 Кбит/сек
Максимальный битрейт : 8000 Кбит/сек
Ширина : 720 пикселей
Высота : 576 пикселей
Соотношение сторон : 16:9
Частота кадров : 25,000 кадров/сек
Стандарт вещания : PAL
Цветовое пространство : YUV
Субдискретизация насыщенности : 4:2:0
Битовая глубина : 8 бит
Тип развёртки : Чересстрочная
Порядок развёртки : Верхнее поле первое
Метод сжатия : С потерями
Бит/(Пиксели*Кадры) : 0.503
Размер потока : 807 Мбайт (79%)
Аудио #1
Идентификатор : 189 (0xBD)-128 (0x80)
Формат : AC-3
Формат/Информация : Audio Coding 3
Расширение режима : CM (complete main)
Параметр Endianness формата : Big
Режим смешивания : DVD-Video
Продолжительность : 21 м.
Вид битрейта : Постоянный
Битрейт : 256 Кбит/сек
Каналы : 5 каналов
Расположение каналов : Front: L C R, Side: L R
Частота : 48,0 КГц
Битовая глубина : 16 бит
Метод сжатия : С потерями
Задержка видео : -440 мс.
Размер потока : 39,6 Мбайт (4%)
Аудио #2
Идентификатор : 189 (0xBD)-130 (0x82)
Формат : AC-3
Формат/Информация : Audio Coding 3
Расширение режима : CM (complete main)
Параметр Endianness формата : Big
Режим смешивания : DVD-Video
Продолжительность : 21 м.
Вид битрейта : Постоянный
Битрейт : 256 Кбит/сек
Каналы : 5 каналов
Расположение каналов : Front: L C R, Side: L R
Частота : 48,0 КГц
Битовая глубина : 16 бит
Метод сжатия : С потерями
Задержка видео : -440 мс.
Размер потока : 39,6 Мбайт (4%)
Аудио #3
Идентификатор : 189 (0xBD)-137 (0x89)
Формат : DTS
Формат/Информация : Digital Theater Systems
Режим смешивания : DVD-Video
Продолжительность : 21 м.
Вид битрейта : Постоянный
Битрейт : 755 Кбит/сек
Каналы : 6 каналов
Расположение каналов : Front: L C R, Side: L R, LFE
Частота : 48,0 КГц
Битовая глубина : 16 бит
Метод сжатия : С потерями
Задержка видео : -547 мс.
Размер потока : 117 Мбайт (11%)


pb.wtf



Скачать Прoпoвeдник c пулeмeтoм через торрент http://i41.fastpic.ru/big/2012/0623/c2/4ea29b5b5eede8ac670286d44ce422c2.jpg Скачать фильм Прoпoвeдник c пулeмeтoм через торрент бесплантно в хорошем качестве Описание: Байкер Сэм Чайлдерс имел множество проблем с законом, но после выхода из тюрьмы, вняв мольбам жены Линн, начал посещать церковь. ... 4.5 10 2
Info! Золотая раздача, скачанное не засчитывается.
Торрент: Зарегистрирован [2012-07-02 05:41] · скачан: 33 раз
Статус: √ проверено
Размер: 7.32 GB
Как cкачать? Как скачать Прoпoвeдник c пулeмeтoм через торрент | UTorrent

28-11-2019 20:33  

Отключить всю рекламу на сайте

    Дорогой пользователь! Огромная просьба, поблагодарите релизера, оцените раздачу и оставьте свои комментарий, если Вы скачали Прoпoвeдник c пулeмeтoм через торрент бесплатно! Внесите свою лепту в развитие PiratBit!
    Комментировать посты могут только пользователи прошедшие не сложную регистрацию
    Показать сообщения:    

    Прoпoвeдник c пулeмeтoм через торрент
    Скачать бесплатно Прoпoвeдник c пулeмeтoм
    Прoпoвeдник c пулeмeтoм скачать торрент
    Прoпoвeдник c пулeмeтoм смотреть онлайн
    Cкачать фильм Прoпoвeдник c пулeмeтoм бесплатно
    Прoпoвeдник c пулeмeтoм скачать торрент в хорошем качестве
    Прoпoвeдник c пулeмeтoм смотреть онлайн бесплатно в хорошем качестве


    Вы не можете начинать темы
    Вы не можете отвечать на сообщения
    Вы не можете редактировать свои сообщения
    Вы не можете удалять свои сообщения
    Вы не можете голосовать в опросах
    Вы не можете прикреплять файлы к сообщениям
    Вы можете скачивать файлы