1 сезон

3 сезон

iTunes

1

iTunes

MVO

iTunes

13

1 сезон

RePack

30

Deluxe

pack

Лицензия

ВАЖНО

ИГРА 18+

pack

RePack

MK11

RePack

jed

RePack

fifa19

RePack

RDR2

RePack

NEED FOR SPEED™ PAYBACK

4 сезон

9 сезон

Бесстыжие 9 сезон

Все сериалы

все сериалы на PB.wtf

RePack

FAR CRY 5

Anonymous, доброе утро, мы катастрофически не успеваем собрать деньги на оплату серверов, помогите нам пожалуйста 5,10,15р., для нас важна любая помощь . В качестве благодарности мы отключим Вам всю рекламу на сайте (укажите свой ник в строку Ваше имя)!

×
  
Magnet ссылка

Женщина в черном / The Woman in Black (Джеймс Уоткинс / James Watkins) [2012, ужасы, триллер, драма, DVD9] R5 pb.wtf

Женщина в черном через торрент pb.wtf

Размер: 7.26 GB | Добавлен: 9 лет назад | Торрент скачан:56 раз
Скачать  

02-07-2012 15:37 Женщина в черном Скачать торрент  


Женщина в черном / The Woman in Black
«Только не смотри на нее»
Страна: Швеция, Канада, Великобритания
Студия: Alliance Films, Cross Creek Pictures, Exclusive Media Group, Film i Väst, Filmgate, Filmgate Films, Hammer Film Productions Limited, Talisman Productions, UK Film Council
Жанр: ужасы, триллер, драма
Год выпуска: 2012
Мировая премьера: 3 февраля 2012
Российская премьера: 15 марта 2012
Дата выхода DVD: 2 июля 2012
Дата выхода Blu-Ray: 9 июля 2012
Продолжительность: 01:31:34
Перевод: Профессиональный (дублированный) [Лицензия]
Cубтитры: нет
Оригинальная аудиодорожка: английский
Режиссер: Джеймс Уоткинс / James Watkins
В ролях: Дэниэл Рэдклифф, Кирен Хайдз, Джанет МакТир, Дэвид Бурк, Шон Дули, Эмма Шори, Молли Хэрмон, Ellisa Walker-Reid, Софи Стаки, Миша Хэндли
Описание: На дворе — конец девятнадцатого века, но, хотя люди пользуются автомобилями, железными дорогами и телеграфом, человек по-прежнему бессилен перед проявлениями сверхъестественного. Молодой лондонский юрист Артур Киппс вынужден оставить своего 4-летнего сына и отправиться в командировку в уединенную северную деревушку, чтобы составить реестр документов, оставшихся от скончавшегося хозяина поместья Ил Марш. Добравшись до места и пообщавшись с негостеприимными местными жителями, он начинает понимать, что над деревушкой нависла тень мрачной тайны. Когда же рядом со старым кладбищем ему на глаза попадается загадочная женщина, одетая в черное, это малозначительное происшествие знаменует начало череды леденящих кровь смертей в семьях обитателей деревни.
Бонусы: Фильм о фильме, анонсы

Качество: DVD9 R5
Формат: DVD-Video
Видео кодек: MPEG2
Аудио кодек: AC3 + DTS
Видео: PAL 16:9 (720x576(0.583)) MPEG Video, 25,000 кадр/сек, 6045 Кбит/сек
Аудио #1: Russian (Dolby AC3, 5 ch) 448 Кбит/сек, 48,0 КГц
Аудио #2: English (Dolby AC3, 5 ch) 448 Кбит/сек, 48,0 КГц
Аудио #3: Russian (DTS, 6 ch) 1536 Кбит/сек, 48,0 КГц



Title:
Size: 7.26 Gb ( 7 608 532 KBytes ) - DVD-9
Enabled regions: 1, 2, 3, 4, 5, 6, 7, 8

VTS_01 :
Play Length: 01:31:34
Video: PAL 16:9 (720x576) VBR, Auto Letterboxed
Audio:
Russian (DTS, 5 ch)
Not specified (Dolby AC3, 6 ch)
Not specified (Dolby AC3, 6 ch)

VTS_02 :
Play Length: 00:00:07
Video: PAL 16:9 (720x576) VBR, Auto Letterboxed
Audio:
English (MPEG1, 2 ch)

VTS_03 :
Play Length: 00:00:16
Video: PAL 4:3 (720x576) VBR
Audio:
English (Dolby AC3, 2 ch)

VTS_04 :
Play Length: 00:12:55
Video: PAL 16:9 (720x576) VBR, Auto Letterboxed
Audio:
English (Dolby AC3, 2 ch)

VTS_05 :
Play Length: 00:02:07
Video: PAL 16:9 (720x576) VBR, Auto Letterboxed
Audio:
Russian (Dolby AC3, 2 ch)

VTS_06 :
Play Length: 00:02:31
Video: PAL 16:9 (720x576) VBR, Auto Letterboxed
Audio:
Russian (Dolby AC3, 2 ch)

VTS_07 :
Play Length: 00:02:19
Video: PAL 16:9 (720x576) VBR, Auto Letterboxed
Audio:
Russian (Dolby AC3, 2 ch)

VTS_08 :
Play Length: 00:01:50
Video: PAL 16:9 (720x576) VBR, Auto Letterboxed
Audio:
Russian (Dolby AC3, 2 ch)

VTS_09 :
Play Length: 00:01:56
Video: PAL 16:9 (720x576) VBR, Auto Letterboxed
Audio:
Russian (Dolby AC3, 2 ch)

VTS_10 :
Play Length: 00:02:00
Video: PAL 16:9 (720x576) VBR, Auto Letterboxed
Audio:
Russian (Dolby AC3, 2 ch)

VTS_11 :
Play Length: 00:02:03
Video: PAL 16:9 (720x576) VBR, Auto Letterboxed
Audio:
Russian (Dolby AC3, 2 ch)

VTS_12 :
Play Length: 00:02:33
Video: PAL 16:9 (720x576) VBR, Auto Letterboxed
Audio:
Russian (Dolby AC3, 2 ch)

VTS_13 :
Play Length: 00:01:26
Video: PAL 16:9 (720x576) VBR, Auto Letterboxed
Audio:
Russian (Dolby AC3, 2 ch)

VTS_14 :
Play Length: 00:02:01
Video: PAL 16:9 (720x576) VBR, Auto Letterboxed
Audio:
Russian (Dolby AC3, 2 ch)
Общее
Полное имя : J:\Новинки 2012\Zhenwina.v.chernom.2012.DVD9\VIDEO_TS\VTS_01_1.VOB
Формат : MPEG-PS
Размер файла : 1024 Мбайт
Продолжительность : 16 м.
Режим общего битрейта : Переменный
Общий поток : 8622 Кбит/сек

Видео
Идентификатор : 224 (0xE0)
Формат : MPEG Video
Версия формата : Version 2
Профиль формата : Main@Main
Параметр BVOP формата : Да
Параметр матрицы формата : По умолчанию
Параметр GOP формата : M=3, N=12
Продолжительность : 16 м.
Вид битрейта : Переменный
Битрейт : 6045 Кбит/сек
Максимальный битрейт : 7500 Кбит/сек
Ширина : 720 пикселей
Высота : 576 пикселей
Соотношение сторон : 16:9
Частота кадров : 25,000 кадров/сек
Стандарт вещания : PAL
Цветовое пространство : YUV
Субдискретизация насыщенности : 4:2:0
Битовая глубина : 8 бит
Тип развёртки : Прогрессивная
Метод сжатия : С потерями
Бит/(Пиксели*Кадры) : 0.583
Размер потока : 718 Мбайт (70%)

Аудио #1
Идентификатор : 189 (0xBD)-129 (0x81)
Формат : AC-3
Формат/Информация : Audio Coding 3
Расширение режима : CM (complete main)
Параметр Endianness формата : Big
Режим смешивания : DVD-Video
Продолжительность : 16 м.
Вид битрейта : Постоянный
Битрейт : 448 Кбит/сек
Каналы : 6 каналов
Расположение каналов : Front: L C R, Side: L R, LFE
Частота : 48,0 КГц
Битовая глубина : 16 бит
Метод сжатия : С потерями
Размер потока : 53,2 Мбайт (5%)

Аудио #2
Идентификатор : 189 (0xBD)-130 (0x82)
Формат : AC-3
Формат/Информация : Audio Coding 3
Расширение режима : CM (complete main)
Параметр Endianness формата : Big
Режим смешивания : DVD-Video
Продолжительность : 16 м.
Вид битрейта : Постоянный
Битрейт : 448 Кбит/сек
Каналы : 6 каналов
Расположение каналов : Front: L C R, Side: L R, LFE
Частота : 48,0 КГц
Битовая глубина : 16 бит
Метод сжатия : С потерями
Размер потока : 53,2 Мбайт (5%)

Аудио #3
Идентификатор : 189 (0xBD)-136 (0x88)
Формат : DTS
Формат/Информация : Digital Theater Systems
Режим смешивания : DVD-Video
Продолжительность : 16 м.
Вид битрейта : Постоянный
Битрейт : 1510 Кбит/сек
Каналы : 6 каналов
Расположение каналов : Front: L C R, Side: L R, LFE
Частота : 48,0 КГц
Битовая глубина : 16 бит
Метод сжатия : С потерями
Размер потока : 179 Мбайт (18%)










pb.wtf



Скачать Женщина в черном через торрент http://i41.fastpic.ru/big/2012/0702/9a/bf8b7337cb7617ccadec3b919425399a.jpg Скачать фильм Женщина в черном через торрент бесплантно в хорошем качестве Описание: На дворе — конец девятнадцатого века, но, хотя люди пользуются автомобилями, железными дорогами и телеграфом, человек по-прежнему ... 5 10 4
Info! Золотая раздача, скачанное не засчитывается.
Торрент: Зарегистрирован [2012-07-02 15:37] · скачан: 56 раз
Статус: √ проверено
Размер: 7.26 GB
Как cкачать? Как скачать Женщина в черном через торрент | UTorrent

% Раздел Тема Автор DL S | L
Фильмы (DVD фильмы) [ 3.94 GB ] Женщина в черном 2: Ангел смерти / The Woman in Black 2: Angel of Death [2014 DVD5] R5 voovaz Скачать
1 | 0
Фильмы 2012 [ 2.22 GB ] Женщина в черном / The Woman in Black [2012 BDRip-AVC] лицензия от R.G. 20th Century Fox RAMBO Скачать
1 | 0
Фильмы (Blu-ray, BD-Remux, HDDVD) [ 15.7 GB ] Женщина в черном / The Woman in Black [2012 BDRemux] [ лицензия ] от R.G. 20th Century Fox RAMBO Скачать
1 | 0

28-11-2019 20:33  

Отключить всю рекламу на сайте

    Дорогой пользователь! Огромная просьба, поблагодарите релизера, оцените раздачу и оставьте свои комментарий, если Вы скачали Женщина в черном через торрент бесплатно! Внесите свою лепту в развитие PiratBit!
    Комментировать посты могут только пользователи прошедшие не сложную регистрацию
    Показать сообщения:    

    Женщина в черном через торрент
    Скачать бесплатно Женщина в черном
    Женщина в черном скачать торрент
    Женщина в черном смотреть онлайн
    Cкачать фильм Женщина в черном бесплатно
    Женщина в черном скачать торрент в хорошем качестве
    Женщина в черном смотреть онлайн бесплатно в хорошем качестве


    Вы не можете начинать темы
    Вы не можете отвечать на сообщения
    Вы не можете редактировать свои сообщения
    Вы не можете удалять свои сообщения
    Вы не можете голосовать в опросах
    Вы не можете прикреплять файлы к сообщениям
    Вы можете скачивать файлы