1 сезон

3 сезон

iTunes

1

Line

MVO

iTunes

13

1 сезон

RePack

30

Deluxe

pack

Лицензия

ВАЖНО

ИГРА 18+

pack

RePack

MK11

RePack

jed

RePack

fifa19

RePack

RDR2

RePack

NEED FOR SPEED™ PAYBACK

4 сезон

9 сезон

Бесстыжие 9 сезон

Все сериалы

все сериалы на PB.wtf

RePack

FAR CRY 5

Anonymous, добрый вечер, мы катастрофически не успеваем собрать деньги на оплату серверов, помогите нам пожалуйста 5,10,15р., для нас важна любая помощь . В качестве благодарности мы отключим Вам всю рекламу на сайте (укажите свой ник в строку Ваше имя)!

×
  
Magnet ссылка

Запретная зона (Брэдли Паркер) [2012 г., ужасы, DVD5] R5 pb.wtf

Запретная зона через торрент pb.wtf

Размер: 3.9 GB | Добавлен: 9 лет назад | Торрент скачан:342 раза
Скачать  

03-07-2012 13:28 Запретная зона Скачать торрент  

Запретная зона




Год выпуска: 2012
Страна: США / Alcon Entertainment, FilmNation Entertainment
Жанр: ужасы
Продолжительность: 01:24:25
Перевод: Дублированный [лицензия]


Режиссер: Брэдли Паркер
В ролях: Ингрид Болсай Бердал, Дмитрий Дьяченко, Оливия Дадли, Девин Келли, Джесси МакКартни, Натан Филлипс, Джонатан Садовский, Милош Тимотиевич, Милутин Милошевич, Иван Джорджевич

Описание: Шестеро молодых туристов-экстремалов прибыли на каникулы в Украину. Узнав о том, что в Зону отчуждения устраиваются экскурсии, они нанимают гида и отправляются за незабываемыми впечатлениями. И таковые не заставляют их долго ждать. Казалось, радиоактивный город пуст и заброшен. Там не осталось ничего живого. Но как только солнце прячется за горизонт, Припять оживает. Нечеловеческие крики сотрясают ночной воздух. Незадачливых путешественников охватывают ужас и паника. Они понимают, что не одни в этом мёртвом городе.

Релиз группы:


Качество: DVD5 R5
Формат: DVD Video
Видео кодек: MPEG2
Аудио кодек: AC3
Видео: 720x576 (16:9), 25.000 fps, 7 443 Kbps (0.718 bit/pixel)
Аудио: 48 kHz, AC3 Dolby Digital, 3/2 (L,C,R,l,r) + LFE ch, ~384 kbps

Дополнительно: Нет











Title:
Size: 3.90 Gb ( 4 092 606 KBytes ) - DVD-5
Enabled regions: 1, 2, 3, 4, 5, 6, 7, 8

VTS_01 :
Play Length: 01:24:25
Video: PAL 16:9 (720x576) VBR, Auto Pan&Scan
Audio:
Russian (Dolby AC3, 6 ch)

VTS_02 :
Play Length: 00:00:05
Video: PAL 16:9 (720x576) VBR, Auto Pan&Scan

VTS_03 :
Play Length: 00:00:08
Video: PAL 4:3 (720x576) VBR

VTS_04 :
Play Length: 00:00:30
Video: PAL 4:3 (720x576) VBR
Audio:
English (Dolby AC3, 2 ch)

Menu Video:
NTSC 4:3 (720x480) VBR
Auto Pan&Scan, Auto Letterboxed
Menu Russian Language Unit :
Root Menu
Chapter (PTT) Menu
Format : MPEG-PS
File size : 1 024 MiB
Duration : 17mn 55s
Overall bit rate mode : Variable
Overall bit rate : 7 986 Kbps

Video
ID : 224 (0xE0)
Format : MPEG Video
Format version : Version 2
Format profile : Main@Main
Format settings, BVOP : Yes
Format settings, Matrix : Custom
Duration : 17mn 55s
Bit rate mode : Variable
Bit rate : 7 443 Kbps
Maximum bit rate : 8 000 Kbps
Width : 720 pixels
Height : 576 pixels
Display aspect ratio : 16:9
Frame rate : 25.000 fps
Standard : PAL
Color space : YUV
Chroma subsampling : 4:2:0
Bit depth : 8 bits
Scan type : Interlaced
Scan order : Top Field First
Compression mode : Lossy
Bits/(Pixel*Frame) : 0.718
Stream size : 954 MiB (93%)

Audio
ID : 189 (0xBD)-128 (0x80)
Format : AC-3
Format/Info : Audio Coding 3
Mode extension : CM (complete main)
Format settings, Endianness : Big
Muxing mode : DVD-Video
Duration : 17mn 55s
Bit rate mode : Constant
Bit rate : 384 Kbps
Channel(s) : 6 channels
Channel positions : Front: L C R, Side: L R, LFE
Sampling rate : 48.0 KHz
Bit depth : 16 bits
Compression mode : Lossy
Stream size : 49.2 MiB (5%)

Menu

pb.wtf



Скачать Запретная зона через торрент http://i43.fastpic.ru/big/2012/0703/d4/ba22b091defbd70019596c5777b769d4.jpg Скачать фильм Запретная зона через торрент бесплантно в хорошем качестве Описание: Шестеро молодых туристов-экстремалов прибыли на каникулы в Украину. Узнав о том, что в Зону отчуждения устраиваются экскурсии, ... 8.5 10 2
Info! Золотая раздача, скачанное не засчитывается.
Торрент: Зарегистрирован [2012-07-03 13:28] · скачан: 342 раз
Статус: √ проверено
Размер: 3.9 GB
Как cкачать? Как скачать Запретная зона через торрент | UTorrent



Последний раз редактировалось: inktorrent (2012-07-03 21:27), всего редактировалось 6 раз(а)

28-11-2019 20:33  

Отключить всю рекламу на сайте

03-07-2012 13:34 Запретная зона Скачать торрент  

Это что за ..... ????pb.wtf



03-07-2012 13:35 Запретная зона Скачать торрент  

ну вот наше ди*** правительство доигралось, клоуны туристы, епрст или ето документальный фильм про чернобыль ?pb.wtf



03-07-2012 13:49 Запретная зона Скачать торрент  

А фильм вроде не чего себеpb.wtf



03-07-2012 14:29 Запретная зона Скачать торрент  

фильм так себе!кто играл в сталкера ,смотрите ,вам будет интересноpb.wtf



03-07-2012 17:21 Запретная зона Скачать торрент  

поржать можно!!!!!!!

предлагаю перевести из статуса ужасы в комедию, бюджет фильма походу стипендия студента ))pb.wtf



28-08-2012 03:28 Запретная зона Скачать торрент  

Фильм мог бы быть нормальным, если б не один психологический момент. Диалоги америкосов убивают отсутствием интеллекта: блевать охота когда ихняя золотая молодежь разговаривает (на место студентов в кинофильмы, им нужно приглашать светил науки, чтобы как-то обогатить свой скудный лексикон). Из-за этого многие фильмы умирают, если в них постоянно слышно только: "Что за херня". Немногословный водитель Юрий на их фоне смотриться полиглотом. Ну и на качество спецэффектов конечно могли бы побольше разориться, факт. Сюжет вроде впорядке... хохлы хорошую идейку подкинули, а вот пиндосы плохо заценили как "для них расстарались" советские человеки .pb.wtf



    Дорогой пользователь! Огромная просьба, поблагодарите релизера, оцените раздачу и оставьте свои комментарий, если Вы скачали Запретная зона через торрент бесплатно! Внесите свою лепту в развитие PiratBit!
    Комментировать посты могут только пользователи прошедшие не сложную регистрацию
    Показать сообщения:    

    Запретная зона через торрент
    Скачать бесплатно Запретная зона
    Запретная зона скачать торрент
    Запретная зона смотреть онлайн
    Cкачать фильм Запретная зона бесплатно
    Запретная зона скачать торрент в хорошем качестве
    Запретная зона смотреть онлайн бесплатно в хорошем качестве


    Вы не можете начинать темы
    Вы не можете отвечать на сообщения
    Вы не можете редактировать свои сообщения
    Вы не можете удалять свои сообщения
    Вы не можете голосовать в опросах
    Вы не можете прикреплять файлы к сообщениям
    Вы можете скачивать файлы