2 сезон

iTunes

MVO

1

2 сезон

iTunes

iTunes

1 сезон

RePack

30

Новинка

ВАЖНО

ИГРА 18+

pack

RePack

MK11
pack

Легкие деньги

RePack

jed

RePack

fifa19

RePack

RDR2

RePack

NEED FOR SPEED™ PAYBACK

4 сезон

9 сезон

Бесстыжие 9 сезон

Все сериалы

все сериалы на PB.wtf

RePack

FAR CRY 5

Anonymous, добрый вечер, мы не успеваем собрать деньги на оплату серверов за декабрь и январь, помогите нам пожалуйста в это трудное время. В качестве благодарности мы отключим Вам всю рекламу на сайте (укажите свой ник в строку Ваше имя)!

×
  
Magnet ссылка

[Lady-Sonia] Lady Sonia (Shoot Your Cum All Over Me!) [29.06.2012 г., Stockings, Nylons, Bodice, Vibrator, SATRip] pb.wtf

через торрент pb.wtf

Размер: 392 MB | Добавлен: 8 лет 6 мес. назад | Торрент скачан:112 раз
Скачать  

06-07-2012 09:47 Скачать торрент  

[Lady-Sonia.com]
Lady Sonia
Shoot Your Cum All Over Me!
[29.06.2012 г.]

Имя актрисы: Lady Sonia
Название ролика: Shoot Your Cum All Over Me
Подсайт и сайт: Lady-Sonia.com

Год производства: 2012 г.
Жанр: Stockings, Nylons, Bodice, Vibrator
Продолжительность: 00:26:13

Качество: SATRip
Формат видео: MP4
Видео кодек: AVC
Аудио кодек: AAC
Видео: 25.000 fps, 1 996 Kbps, 720x404
Аудио: 93.0 Kbps, 2 channels, 48.0 KHz

Описание:
You arrive at my house to move some trunks and cabinets in the annex and the front door is open so you come straight in and come upstairs to find me naked in the shower…
Of course I see you but instead of covering myself up I slowly soap my HUGE 34 “F” cup tits as you watch and then turn around so that you can watch me soap
my bottom and legs making sure that you can see EVERYTHING then after getting out of the shower and towelling myself dry
I let you watch as pull on a classic black bodice and a pair of contrast seam “fully fashioned”
nylons and spike heels and then I take you over to the annex to show you what I want you to move…
But do you REALLY want to move everything right now? Or would you rather I slowly strip off for you and then lay down so that you can shoot a
HUGE load of hot thick cum all over my face and my body? The choice is yours and I am
VERY keen to help you if you need to cum… I am waiting for you inside RIGHT NOW so please do hurry up!

General
Complete name : Shoot Your Cum All Over Me.mp4
Format : MPEG-4
Format profile : Base Media / Version 2
Codec ID : mp42
File size : 392 MiB
Duration : 26mn 13s
Overall bit rate mode : Variable
Overall bit rate : 2 092 Kbps
Encoded date : UTC 2012-05-26 05:35:55
Tagged date : UTC 2012-05-26 05:35:55
Writing library : AVS

Video
ID : 1
Format : AVC
Format/Info : Advanced Video Codec
Format profile : Baseline@L1.3
Format settings, CABAC : No
Format settings, ReFrames : 1 frame
Codec ID : avc1
Codec ID/Info : Advanced Video Coding
Duration : 26mn 13s
Bit rate : 1 996 Kbps
Width : 720 pixels
Height : 404 pixels
Display aspect ratio : 16:9
Frame rate mode : Constant
Frame rate : 25.000 fps
Color space : YUV
Chroma subsampling : 4:2:0
Bit depth : 8 bits
Scan type : Progressive
Bits/(Pixel*Frame) : 0.274
Stream size : 374 MiB (95%)
Language : English
Encoded date : UTC 2012-05-26 05:35:55
Tagged date : UTC 2012-05-26 05:35:55

Audio
ID : 2
Format : AAC
Format/Info : Advanced Audio Codec
Format profile : LC
Codec ID : 40
Duration : 26mn 13s
Bit rate mode : Variable
Bit rate : 93.0 Kbps
Maximum bit rate : 96.0 Kbps
Channel(s) : 2 channels
Channel positions : Front: L R
Sampling rate : 48.0 KHz
Compression mode : Lossy
Stream size : 17.4 MiB (4%)
Language : English
Encoded date : UTC 2012-05-26 05:35:55
Tagged date : UTC 2012-05-26 05:35:55
pb.wtf



pack Скачать через торрент http://i43.fastpic.ru/big/2012/0706/0b/07036431d8547ffbe657717f4327b60b.jpg Скачать фильм [Lady-Sonia] Lady Sonia через торрент бесплантно в хорошем качестве Описание:You arrive at my house to move some trunks and cabinets in the annex and the front door is open so you come straight in and come ... 3.5 10 4
Info! Золотая раздача, скачанное не засчитывается.
Торрент: Зарегистрирован [2012-07-06 09:47] · скачан: 112 раз
Статус: √ проверено
Размер: 392 MB
Как cкачать? Как скачать через торрент | UTorrent

28-11-2019 20:33  

Отключить всю рекламу на сайте

    Дорогой пользователь! Огромная просьба, поблагодарите релизера, оцените раздачу и оставьте свои комментарий, если Вы скачали через торрент бесплатно! Внесите свою лепту в развитие PiratBit!
    Комментировать посты могут только пользователи прошедшие не сложную регистрацию
    Показать сообщения:    

    через торрент
    Скачать бесплатно
    скачать торрент
    смотреть онлайн
    Cкачать фильм бесплатно
    скачать торрент в хорошем качестве
    смотреть онлайн бесплатно в хорошем качестве


    Вы не можете начинать темы
    Вы не можете отвечать на сообщения
    Вы не можете редактировать свои сообщения
    Вы не можете удалять свои сообщения
    Вы не можете голосовать в опросах
    Вы не можете прикреплять файлы к сообщениям
    Вы можете скачивать файлы