Ссылка на приватное зеркало нашего сайта всего за 1$. Внимание количество ограничено!!!

2 сезон

iTunes

1 сезон

1

iTunes

iTunes

iTunes

1 сезон

RePack

30

ИГРА 18+

pack

ВАЖНО

!!Акция!!

Alien_RageХит недели

RePack

MK11
pack

Забери бонус

RePack

jed

!!Акция!!

Alien_Rage

RePack

fifa19

RePack

Assassins Creed: Odyssey

RePack

NEED FOR SPEED™ PAYBACK

4 сезон

9 сезон

Бесстыжие 9 сезон

Все сериалы

все сериалы на PB.wtf

RePack

FAR CRY 5
  

Терминал / Серии: 1 - 24 из 24 (Марсель Шамшулин) [2010, Россия, криминал, детектив, 2 х DVD9] R5 Original Rus pb.wtf

Терминал через торрент pb.wtf

Размер: 15.51 GB | Добавлен: 8 лет 3 мес. назад | Торрент скачан:89 раз
Скачать  

07-07-2012 12:05 Терминал Скачать торрент  

Терминал

Год выпуска: 2010
Страна: Россия, ТОВ "Синтезфильм" / кинокомпания Fox in box по заказу НТВ
Жанр: детектив, криминал
Продолжительность: 24 x 00:45:00
Перевод: Не требуется
Режиссер: Марсель Шамшулин
Продюссер: Аркадий Данилов
Сценарий: Алексей Теплыгин
В ролях: Вячеслав Разбегаев, Наталья Антонова, Олег Штефанко, Татьяна Журавлева, Михаил Самохвалов, Эдуард Галеев, Игорь Литовкин, Юлия Марина, Святослав Чирков, Анна Чурина, Михаил Колядин, Алексей Овсянников, Ольга Антропова, Сергей Лобынцев, Геннадий Шныптев, Ирина Даниленко, Владислав Дунаев, Сергей Бадюк
Описание: События остросюжетного связаны с таможенным терминалом, куда в свое время за жесткие методы работы «сослали» боевого оперативника — майора Муратова, одного из лучших сотрудников МУРа.

История его попадания на новую службу печальна. Муратов вычислил канал накротрафика, а вскоре пропала его 4-летняя дочь. Год безрезультатных поисков, увольнение из органов, разрушенная семья и потерянный смысл жизни. В какой-то момент, скатившись на самое дно, Муратов понял, что если сейчас не возьмет себя в руки, обратного пути уже не будет. Благодаря дружеским связям майор возвращается на службу в отдел, но впереди его ждет непростое испытание. Случайно оказавшись в банке, который захватили грабители, Муратов обезоруживает налетчиков, но начальство, проанализировав записи камер видеонаблюдения, приходит к выводу, что Игорь рисковал жизнями заложников. Чтобы избежать увольнения, Муратов соглашается занять скромную должность в обычном линейном отделе терминала. Но и там для Муратова найдется непростая работа! Там же Игорь вновь встанет перед выбором — спасать близкого человека или следовать букве закона.

Качество: 2xDVD9 R5
Формат: DVD Video
Видео кодек: MPEG2
Аудио кодек: AC3
Видео: PAL 4:3 (720x576(0.553)) MPEG Video, 25,000 кадр/сек, 5736 Кбит/сек
Аудио#1: Russian (Dolby AC3, 2 ch) 192 Кбит/сек, 48,0 КГц

Релиз группы:
[] [/url]

Код:

Title:
Size: 7.85 Gb ( 8 228 806 KBytes ) - DVD-9
Enabled regions: 1, 2, 3, 4, 5, 6, 7, 8

VTS_01 :
Play Length: 09:16:01
Video: PAL 4:3 (720x576) VBR
Audio:
English (Dolby AC3, 2 ch)

Menu Video:
PAL 4:3 (720x576) VBR
Menu Audio:
Not specified (Dolby AC3, 2 ch)
Menu Subtitles:
Not specified
Menu Russian Language Unit :
Root Menu

Код:

Title:
Size: 7.67 Gb ( 8 039 078 KBytes ) - DVD-9
Enabled regions: 1, 2, 3, 4, 5, 6, 7, 8

VTS_01 :
Play Length: 09:02:59
Video: PAL 4:3 (720x576) VBR
Audio:
English (Dolby AC3, 2 ch)

Menu Video:
PAL 4:3 (720x576) VBR
Menu Audio:
Not specified (Dolby AC3, 2 ch)
Menu Subtitles:
Not specified
Menu Russian Language Unit :
Root Menu

Код:

Общее
Полное имя : J:\Новинки 2012\Terminal.2010.2хDVD9\DVD-1\VIDEO_TS\VTS_01_1.VOB
Формат : MPEG-PS
Размер файла : 1024 Мбайт
Продолжительность : 23 м.
Режим общего битрейта : Переменный
Общий поток : 6049 Кбит/сек

Видео
Идентификатор : 224 (0xE0)
Формат : MPEG Video
Версия формата : Version 2
Профиль формата : Main@Main
Параметр BVOP формата : Да
Параметр матрицы формата : Выборочная
Продолжительность : 23 м.
Вид битрейта : Переменный
Битрейт : 5736 Кбит/сек
Максимальный битрейт : 7000 Кбит/сек
Ширина : 720 пикселей
Высота : 576 пикселей
Соотношение сторон : 4:3
Частота кадров : 25,000 кадров/сек
Стандарт вещания : PAL
Цветовое пространство : YUV
Субдискретизация насыщенности : 4:2:0
Битовая глубина : 8 бит
Тип развёртки : Прогрессивная
Метод сжатия : С потерями
Бит/(Пиксели*Кадры) : 0.553
Размер потока : 971 Мбайт (95%)

Аудио
Идентификатор : 189 (0xBD)-128 (0x80)
Формат : AC-3
Формат/Информация : Audio Coding 3
Расширение режима : CM (complete main)
Параметр Endianness формата : Big
Режим смешивания : DVD-Video
Продолжительность : 23 м.
Вид битрейта : Постоянный
Битрейт : 192 Кбит/сек
Каналы : 2 канала
Расположение каналов : Front: L R
Частота : 48,0 КГц
Битовая глубина : 16 бит
Метод сжатия : С потерями
Размер потока : 32,5 Мбайт (3%)

pb.wtf



Скачать Терминал через торрент http://i082.radikal.ru/1207/b4/94ed276af231.jpg Скачать фильм Терминал через торрент бесплантно в хорошем качестве Описание: События остросюжетного связаны с таможенным терминалом, куда в свое время за жесткие методы работы «сослали» боевого оперативника ... 5 10 3
Info! Золотая раздача, скачанное не засчитывается.
Торрент: Зарегистрирован [2012-07-07 12:09] · скачан: 89 раз
Статус: √ проверено
Размер: 15.51 GB
Как cкачать? Как скачать Терминал через торрент | qTorrent

28-11-2019 20:33  

Отключить всю рекламу на сайте

    Дорогой пользователь! Огромная просьба, поблагодарите релизера, оцените раздачу и оставьте свои комментарий, если Вы скачали Терминал через торрент бесплатно! Внесите свою лепту в развитие PiratBit!
    Комментировать посты могут только пользователи прошедшие не сложную регистрацию
    Показать сообщения:    

    Терминал через торрент
    Скачать бесплатно Терминал
    Терминал скачать торрент
    Терминал смотреть онлайн
    Cкачать фильм Терминал бесплатно
    Терминал скачать торрент в хорошем качестве
    Терминал смотреть онлайн бесплатно в хорошем качестве


    Вы не можете начинать темы
    Вы не можете отвечать на сообщения
    Вы не можете редактировать свои сообщения
    Вы не можете удалять свои сообщения
    Вы не можете голосовать в опросах
    Вы не можете прикреплять файлы к сообщениям
    Вы можете скачивать файлы