1 сезон

1 сезон

iTunes

1

КиноПоиск HD

Кинопоиск HD

iTunes

13

1 сезон

RePack

30

Новинка

ВАЖНО

ИГРА 18+

pack

RePack

MK11
pack

Легкие деньги

RePack

jed

RePack

fifa19

RePack

RDR2

RePack

NEED FOR SPEED™ PAYBACK

4 сезон

9 сезон

Бесстыжие 9 сезон

Все сериалы

все сериалы на PB.wtf

RePack

FAR CRY 5
  
Magnet ссылка

Джейсон Х / Jason X (Джеймс Исаак) [2001 г., ужасы, фантастика, DVDRip, Профессиональный (многоголосый закадровый)] pb.wtf

Джейсон Х через торрент pb.wtf

Размер: 701 MB | Добавлен: 8 лет 9 мес. назад | Торрент скачан:123 раза
Скачать  

09-07-2012 10:58 Джейсон Х Скачать торрент  

Джейсон Х / Jason X
«Зло совершенствуется»
Год выпуска
: 2001
Страна: США
Жанр: ужасы, фантастика
Продолжительность: 91 мин.
Перевод:Професиональный (многоголосый закадровый)

Режиссер: Джеймс Исаак
ПродюссерНоэль Каннингэм, Шон С. Каннингэм, Джофф Гаррет

Бюджет: $11 000 000

В ролях: Лекса Дойг, Лиза Райдер, Чак Кэмпбелл, Джонатан Поттс, Питер Менса, Мелисса Эд, Мелоди Джонсон, Филип Уильямс, Дервин Джордан, Дов Тифенбах

Описание:Группа студентов-археологов из новой колонии «Земля-2» прилетает на Старую Землю, давно уже ставшую токсичной пустыней, чтобы исследовать древние останки прошлых цивилизаций. Студенты находят два замороженных криогеном тела, хранящихся около 400 лет в старом исследовательском центре.Обрадованная своей находкой команда забирает тела с собой. Одно их тел принадлежит серийному убийце Джейсону Вурхису. Студенты не подозревают, с какой смертельной опасностью им предстоит столкнуться, хотя дальнейшее развитие событий не трудно предугадать. Джейсон самостоятельно реанимируется прямо на корабле и, быстро расправившись с небольшим отрядом спецназа, начинает охоту на студентов...

Качество: DVDRip
Формат: AVI
Видео кодек: MPEG4
Аудио кодек: MPEG Audio
Видео: 512х272 (4:2:0),MPEG4 , 993 Кбит/сек, 20,000 кадров/сек
Аудио#1: 44,1 КГц, MPEG Audio (2 канала), 111 Кбит/сек
СЭМПЛ
Формат : AVI
Формат/Информация : Audio Video Interleave
Размер файла : 701 Мбайт
Продолжительность : 1 ч. 27 м.
Общий поток : 1116 Кбит/сек
Программа кодирования : Nandub v1.0rc2
Библиотека кодирования : Nandub build 1852/release

Видео
Идентификатор : 0
Формат : MPEG-4 Visual
Идентификатор кодека : DX50
Идентификатор кодека/Подсказка : DivX 5
Продолжительность : 1 ч. 27 м.
Продолжительность оригинала : 1 ч. 11 м.
Битрейт : 48,5 Мбит/сек
Ширина : 512 пикселей
Высота : 272 пикселя
Соотношение сторон : 1,882
Частота кадров : 20,000 кадров/сек
Цветовое пространство : YUV
Субдискретизация насыщенности : 4:2:0
Метод сжатия : С потерями
Бит/(Пиксели*Кадры) : 17.427
Размер потока : 24,4 Гбайт

Аудио
Идентификатор : 1
Формат : MPEG Audio
Идентификатор кодека : 55
Идентификатор кодека/Подсказка : MP3
Продолжительность : 1 ч. 27 м.
Продолжительность оригинала : 46 ч.
Битрейт : 112 Кбит/сек
Каналы : 2 канала
Частота : 44,1 КГц
Метод сжатия : С потерями
Размер потока : 2,18 Гбайт
Выравнивание : Соединение по промежуткам
Продолжительность промежутка : 26 мс. (0,52 видеокадр)
Время предзагрузки промежутка : 469 мс.

pb.wtf



Скачать Джейсон Х через торрент https://pic.kartinco.top/images/1/8cdw5tltrx.jpg Скачать фильм Джейсон Х через торрент бесплантно в хорошем качестве Описание:Группа студентов-археологов из новой колонии «Земля-2» прилетает на Старую Землю, давно уже ставшую токсичной пустыней, чтобы ... 10 10 1
Info! Золотая раздача, скачанное не засчитывается.
Торрент: Зарегистрирован [2012-07-09 10:58] · скачан: 123 раз
Статус: √ проверено
Размер: 701 MB
Как cкачать? Как скачать Джейсон Х через торрент | UTorrent

% Раздел Тема Автор DL S | L
Фильмы [HD 720p, 1080p] (Хороший звук DUB, MVO) [ 10.57 GB ] Джейсон Х / Jason X [2001 BDRip 1080p] 2xMVO 4xDVO AVO VO Леонид Ильич Скачать
1 | 0
Фильмы 2001-2005 [ 1.37 GB ] Джейсон Х / Jason X [ 2001 DVDRip MVO ] ФёдорOFF Скачать
1 | 0
Фильмы 2001-2005 [ 1.37 GB ] Джейсон Х / Jason X [2001 DVDRip] war22200 Скачать
1 | 0

28-11-2019 20:33  

Отключить всю рекламу на сайте

09-07-2012 11:32 Джейсон Х Скачать торрент  

вчера по тнт смотрел, так себе фильм)pb.wtf



09-07-2012 13:44 Джейсон Х Скачать торрент  

Для 2001 года неплохоpb.wtf



    Дорогой пользователь! Огромная просьба, поблагодарите релизера, оцените раздачу и оставьте свои комментарий, если Вы скачали Джейсон Х через торрент бесплатно! Внесите свою лепту в развитие PiratBit!
    Комментировать посты могут только пользователи прошедшие не сложную регистрацию
    Показать сообщения:    

    Джейсон Х через торрент
    Скачать бесплатно Джейсон Х
    Джейсон Х скачать торрент
    Джейсон Х смотреть онлайн
    Cкачать фильм Джейсон Х бесплатно
    Джейсон Х скачать торрент в хорошем качестве
    Джейсон Х смотреть онлайн бесплатно в хорошем качестве


    Вы не можете начинать темы
    Вы не можете отвечать на сообщения
    Вы не можете редактировать свои сообщения
    Вы не можете удалять свои сообщения
    Вы не можете голосовать в опросах
    Вы не можете прикреплять файлы к сообщениям
    Вы можете скачивать файлы