новый адрес
Ссылка на приватное зеркало всего за 1$. Внимание количество ограничено!!!

iTunes

1+1

iTunes

мы

WEB-DL

1

iTunes

Чернобыль

iTunes

Ральф против интернета

Лицензия

ПШазам

Лицензия

Оно 2

Лицензия

30
pack

Вам бонус

ВАЖНО

!!Акция!!

Alien_RageХит недели

RePack

Resident Evil 21

ИГРА 18+

pack

RePack

jed

!!Акция!!

Alien_Rage

RePack

fifa19

RePack

Assassins Creed: Odyssey

RePack

NEED FOR SPEED™ PAYBACK

3 сезон

9 сезон

Бесстыжие 9 сезон

Все сериалы

все сериалы на PB.wtf

RePack

FAR CRY 5
Ребята, катастрофически не хватает 1900р. для оплаты серверов за Октябрь (всвязи с блокировками трафик упал в 3 раза), 1-2р., выручайте.
  

Марта, Марси Мэй, Марлен / Martha Marcy May Marlene (Шон Дуркин) [2011 г., триллер, драма, HDRip, Профессиональный (многоголосый) (лицензия)] pb.wtf

Марта, Марси Мэй, Марлен через торрент pb.wtf

Размер: 1.36 GB | Добавлен: 7 лет 5 мес. назад | Торрент скачан:127 раз
Скачать  

09-07-2012 18:31 Марта, Марси Мэй, Марлен Скачать торрент  


Марта, Марси Мэй, Марлен / Martha Marcy May Marlene
Год выпуска: 2011
Страна: США, BorderLine Films / Cunningham & Maybach Films / FilmHaven Entertainment
Жанр: триллер, драма
Продолжительность: 01:41:54
Перевод: Профессиональный (многоголосый) (Лицензия)

Режиссер: Шон Дуркин

В ролях: Элизабет Олсен, Кристофер Эбботт, Брэйди Корбет, Хью Дэнси, Мария Дицциа, Джулия Гарнер, Джон Хоукс, Луиса Краузе, Сара Полсон, Адам Дэвид Томпсон

Описание: Сбежав из секты и от ее харизматичного лидера, Марта пытается восстановиться и вернуться к нормальной жизни. Она ищет поддержки у своей старшей сестры Люси и ее мужа, с которыми давно не общалась, но не находит в себе сил признаться им в истинной причине своего долгого отсутствия. Она убеждена, что члены секты ее преследуют. Мучительные воспоминания, не дающие девушке покоя, перерастают в паранойю, и граница между реальностью и иллюзией постепенно размывается…
Доп. информация:


Качество: HDRip
Формат: AVI
Видео кодек: XviD
Аудио кодек: AC3
Видео: 1458 Kb/s, 720x304,23,976 fps
Аудио#1: AC3, 448 Kb/s (6 ch),48,0 КГц


General
Complete name : Marta.Marsi.May.Marlen.2011.P.HDRip.avi
Format : AVI
Format/Info : Audio Video Interleave
Format profile : OpenDML
Format settings : rec
File size : 1.36 GiB
Duration : 1h 41mn
Overall bit rate : 1 913 Kbps
Writing application : AVI-Mux GUI 1.17.8.3, Feb 16 201019:42:50
Video #0
ID : 0
Format : MPEG-4 Visual
Format profile : Advanced Simple@L5
Format settings, BVOP : 1
Format settings, QPel : No
Format settings, GMC : No warppoints
Format settings, Matrix : Default (MPEG)
Codec ID : XVID
Codec ID/Hint : XviD
Duration : 1h 41mn
Bit rate : 1 460 Kbps
Width : 720 pixels
Height : 304 pixels
Display aspect ratio : 2.35:1
Frame rate : 23.976 fps
Color space : YUV
Chroma subsampling : 4:2:0
Bit depth : 8 bits
Scan type : Progressive
Compression mode : Lossy
Bits/(Pixel*Frame) : 0.278
Stream size : 1.04 GiB (76%)
Writing library : XviD 1.2.1 (UTC 2008-12-04)
Audio #1
ID : 1
Format : AC-3
Format/Info : Audio Coding 3
Mode extension : CM (complete main)
Codec ID : 2000
Duration : 1h 41mn
Bit rate mode : Constant
Bit rate : 448 Kbps
Channel(s) : 6 channels
Channel positions : Front: L C R, Side: L R, LFE
Sampling rate : 48.0 KHz
Bit depth : 16 bits
Compression mode : Lossy
Stream size : 327 MiB (23%)
Alignment : Aligned on interleaves
Interleave, duration : 64 ms (1.53 video frames)
Interleave, preload duration : 192 ms
Title : 00800.track_4360

pb.wtf



Скачать Марта, Марси Мэй, Марлен через торрент http://pic.kartinco.top/images/1/khfj7zz5qd.png Скачать фильм Марта, Марси Мэй, Марлен через торрент бесплантно в хорошем качестве Описание: Сбежав из секты и от ее харизматичного лидера, Марта пытается восстановиться и вернуться к нормальной жизни. Она ищет поддержки у ... 10 10 2
Info! Золотая раздача, скачанное не засчитывается.
Торрент: Зарегистрирован [2012-07-09 18:31] · скачан: 127 раз
Статус: √ проверено
Размер: 1.36 GB
Как cкачать? Как скачать Марта, Марси Мэй, Марлен через торрент | qTorrent

% Раздел Тема Автор DL S | L
Фильмы [HD 720p, 1080p] (Хороший звук DUB, MVO) [ 4.92 GB ] Марта Марси Мэй Марлен / Martha Marcy May Marlene [2011 BDRip 720p] 2xMVO [BD EUR Первый Канал] + Original + Subs от R.G. PiratFilms Messa-fan Скачать
1 | 0

28-11-2019 20:33  

Отключить всю рекламу на сайте

10-07-2012 13:13 Марта, Марси Мэй, Марлен Скачать торрент  

Следующая часть: Гари, Грей Гил, Гарисон / Garry, Gray Gill, Garrisonpb.wtf



15-07-2012 15:41 Марта, Марси Мэй, Марлен Скачать торрент  

О чём фильм, почему идет 1.40, описано в релизе всё. Максимум на 15-20 минут. Бедный кот, которого тянут за хвост. 2/10.pb.wtf



05-02-2013 20:27 Марта, Марси Мэй, Марлен Скачать торрент  

dgrebenichenko писал(а):

О чём фильм, почему идет 1.40, описано в релизе всё. Максимум на 15-20 минут. Бедный кот, которого тянут за хвост. 2/10.

Ёмко и по теме. Спасибо!pb.wtf



    Дорогой пользователь! Огромная просьба, поблагодарите релизера, оцените раздачу и оставьте свои комментарий, если Вы скачали Марта, Марси Мэй, Марлен через торрент бесплатно! Внесите свою лепту в развитие PiratBit!
    Комментировать посты могут только пользователи прошедшие не сложную регистрацию
    Показать сообщения:    

    Марта, Марси Мэй, Марлен через торрент
    Скачать бесплатно Марта, Марси Мэй, Марлен
    Марта, Марси Мэй, Марлен скачать торрент
    Марта, Марси Мэй, Марлен смотреть онлайн
    Cкачать фильм Марта, Марси Мэй, Марлен бесплатно
    Марта, Марси Мэй, Марлен скачать торрент в хорошем качестве
    Марта, Марси Мэй, Марлен смотреть онлайн бесплатно в хорошем качестве


    Вы не можете начинать темы
    Вы не можете отвечать на сообщения
    Вы не можете редактировать свои сообщения
    Вы не можете удалять свои сообщения
    Вы не можете голосовать в опросах
    Вы не можете прикреплять файлы к сообщениям
    Вы можете скачивать файлы