2 сезон

iTunes

1 сезон

1

iTunes

iTunes

iTunes

1 сезон

RePack

30

ИГРА 18+

pack

ВАЖНО

!!Акция!!

Alien_RageХит недели

RePack

MK11
pack

Забери бонус

RePack

jed

!!Акция!!

Alien_Rage

RePack

fifa19

RePack

Assassins Creed: Odyssey

RePack

NEED FOR SPEED™ PAYBACK

4 сезон

9 сезон

Бесстыжие 9 сезон

Все сериалы

все сериалы на PB.wtf

RePack

FAR CRY 5
  

Рассвет мертвецов / Dawn of the Dead (Зак Снайдер) [2004 г., ужасы, фантастика, боевик, триллер, BDRip 720p, DUB] pb.wtf

Рассвет мертвецов через торрент pb.wtf

Размер: 9.23 GB | Добавлен: 8 лет 3 мес. назад | Торрент скачан:207 раз
Скачать  

10-07-2012 18:14 Рассвет мертвецов Скачать торрент  

Рассвет мертвецов / Dawn of the Dead

Год выпуска: 2004
Страна: США, Канада, Франция, Япония
Жанр: ужасы, фантастика, боевик, триллер
Продолжительность: 01:49:12
Перевод: Дубляж
Режиссер: Зак Снайдер
Продюссер: Марк Абрахам, Эрик Ньюман, Ричард П. Рубинштейн
Сценарий: Джордж А. Ромеро, Джеймс Ганн
Бюджет: $26 000 000
Премьера в мире: 10 марта 2004
В ролях: Сара Полли (Ana), Винг Рэймс (Kenneth), Джейк Уэбер (Michael), Мехи Файфер (Andre), Ти Баррелл (Steve), Майкл Келли (CJ), Кевин Зегерс (Terry), Майкл Бэрри (Bart), Линди Бут (Nicole), Джэйн Иствуд (Norma), Бойд Бэнкс (Tucker), Инна Коробкина (Luda)
Описание: В то время, как Америка содрогается от внезапного нашествия миллионов мертвецов, маленькая группа уцелевших людей пытаются найти убежище и защиту в огромном здании торгового центра. Но они недолго смогут противостоять нападению зомби.
Понимая, что время истекает, герои предпринимают попытку побега на безопасный остров, но смогут ли они добраться туда живыми?
Качество: BDRip 720p
Формат: MKV
Видео кодек: H.264x
Аудио кодек: DTS
Видео: 1280x544 (2.35:1); 6154 Kbps; 23,976 fps; 0,368 bpp
Аудио: Russian; DTS Audio / 5.1 / 48 kHz / 755 kbps / 24-bit; Дубляж
Субтитры №1: Russian; Forced
Субтитры №2: Russian
Субтитры №3: English
Субтитры №4: Russian; Feature Commentary with Director Zack Snyder and Producer Eric Newman
Субтитры №5: English; Feature Commentary with Director Zack Snyder and Producer Eric Newman
Субтитры №6: French
Субтитры №7: Russian; для дороги Bellmann

Аудио №3: Russian; Dolby Digital Audio / 5.1 / 48 kHz / 448 kbps; Tycoon
Аудио №4: Russian; DTS Audio / 5.1 / 48 kHz / 1509 kbps / 24-bit; Королёв
Аудио №5: Russian; DTS Audio / 5.1 / 48 kHz / 1509 kbps / 24-bit; Bellmann (есть места без перевода)
Аудио №6: English; Dolby Digital Audio / 2.0 / 48 kHz / 192 kbps; Feature Commentary with Director Zack Snyder and Producer Eric Newman


Уникальный идентификатор : 198336390436324238511946839109273507193 (0x95363307F74324BBA36CD28FBD0DD579)
Полное имя : C:\Documents and Settings\Admin\Рабочий стол\торы\Dawn.of.the.Dead.2004.720p.BluRay.x264-Skazhutin\Dawn.of.the.Dead.2004.720p.BluRay.x264-Skazhutin.mkv
Формат : Matroska
Размер файла : 6,43 Гбайт
Продолжительность : 1 ч. 49 м.
Общий поток : 8435 Кбит/сек
Дата кодирования : UTC 2010-10-06 10:02:57
Программа кодирования : mkvmerge v4.3.0 ('Escape from the Island') built on Sep 5 2010 10:30:51
Библиотека кодирования : libebml v1.0.0 + libmatroska v1.0.0
Обложка : Yes / Yes

Видео
Идентификатор : 1
Формат : AVC
Формат/Информация : Advanced Video Codec
Профиль формата : High@L4.1
Параметр CABAC формата : Да
Параметр ReFrames формата : 11 кадров
Идентификатор кодека : V_MPEG4/ISO/AVC
Продолжительность : 1 ч. 49 м.
Битрейт : 6003 Кбит/сек
Ширина : 1280 пикс.
Высота : 544 пикс.
Соотношение сторон : 2,35:1
Частота кадров : 23,976 кадр/сек
Цветовое пространство : YUV
Подвыборка цветности : 4:2:0
Битовая глубина : 8 бит
Тип развёртки : Прогрессивная
Бит/(Пиксели*Кадры) : 0.360
Размер потока : 4,58 Гбайт (71%)
Заголовок : 1280x544 (2.35:1); 6154 Kbps; 23,976 fps; 0,368 bpp
Библиотека кодирования : x264 core 104 r1713 c276662
Настройки программы : cabac=1 / ref=11 / deblock=1:-3:-2 / analyse=0x3:0x113 / me=umh / subme=10 / psy=1 / psy_rd=1.00:0.00 / mixed_ref=1 / me_range=32 / chroma_me=1 / trellis=2 / 8x8dct=1 / cqm=0 / deadzone=21,11 / fast_pskip=1 / chroma_qp_offset=-2 / threads=6 / sliced_threads=0 / nr=0 / decimate=1 / interlaced=0 / constrained_intra=0 / bframes=11 / b_pyramid=2 / b_adapt=2 / b_bias=0 / direct=3 / weightb=1 / open_gop=0 / weightp=2 / keyint=250 / keyint_min=23 / scenecut=40 / intra_refresh=0 / rc_lookahead=60 / rc=crf / mbtree=0 / crf=18.0 / qcomp=0.70 / qpmin=10 / qpmax=51 / qpstep=4 / vbv_maxrate=50000 / vbv_bufsize=62500 / crf_max=0.0 / ip_ratio=1.40 / pb_ratio=1.30 / aq=1:0.95 / nal_hrd=none
Язык : English
Коэффициенты матрицы : BT.709-5, BT.1361, IEC 61966-2-4 709, SMPTE RP177

Аудио #1
Идентификатор : 2
Формат : DTS
Формат/Информация : Digital Theater Systems
Идентификатор кодека : A_DTS
Продолжительность : 1 ч. 49 м.
Вид битрейта : Постоянный
Битрейт : 755 Кбит/сек
Каналы : 6 каналов
Расположение каналов : Front: L C R, Side: L R, LFE
Частота : 48,0 КГц
Битовая глубина : 24 бит
Метод сжатия : С потерями
Размер потока : 589 Мбайт (9%)
Заголовок : DTS Audio / 5.1 / 48 kHz / 1509 kbps / 24-bit; Dub
Язык : Russian

Аудио #2
Идентификатор : 3
Формат : DTS
Формат/Информация : Digital Theater Systems
Идентификатор кодека : A_DTS
Продолжительность : 1 ч. 49 м.
Вид битрейта : Постоянный
Битрейт : 1510 Кбит/сек
Каналы : 6 каналов
Расположение каналов : Front: L C R, Side: L R, LFE
Частота : 48,0 КГц
Битовая глубина : 24 бит
Метод сжатия : С потерями
Размер потока : 1,15 Гбайт (18%)
Заголовок : DTS Audio / 5.1 / 48 kHz / 1509 kbps / 24-bit; Orig
Язык : English

Текст #1
Идентификатор : 4
Формат : UTF-8
Идентификатор кодека : S_TEXT/UTF8
Идентификатор кодека/Информация : UTF-8 Plain Text
Заголовок : Forced
Язык : Russian

Текст #2
Идентификатор : 5
Формат : UTF-8
Идентификатор кодека : S_TEXT/UTF8
Идентификатор кодека/Информация : UTF-8 Plain Text
Язык : Russian

Текст #3
Идентификатор : 6
Формат : UTF-8
Идентификатор кодека : S_TEXT/UTF8
Идентификатор кодека/Информация : UTF-8 Plain Text
Язык : English

Текст #4
Идентификатор : 7
Формат : UTF-8
Идентификатор кодека : S_TEXT/UTF8
Идентификатор кодека/Информация : UTF-8 Plain Text
Заголовок : Feature Commentary with Director Zack Snyder and Producer Eric Newman
Язык : Russian

Текст #5
Идентификатор : 8
Формат : UTF-8
Идентификатор кодека : S_TEXT/UTF8
Идентификатор кодека/Информация : UTF-8 Plain Text
Заголовок : Feature Commentary with Director Zack Snyder and Producer Eric Newman
Язык : English

Текст #6
Идентификатор : 9
Формат : UTF-8
Идентификатор кодека : S_TEXT/UTF8
Идентификатор кодека/Информация : UTF-8 Plain Text
Заголовок : for track Bellmann
Язык : Russian

Текст #7
Идентификатор : 10
Формат : UTF-8
Идентификатор кодека : S_TEXT/UTF8
Идентификатор кодека/Информация : UTF-8 Plain Text
Язык : French

Меню
00:00:00.000 : en:A Nice Day
00:04:29.352 : en:Lock All Doors
00:10:38.888 : en:Main Titles
00:13:15.586 : en:Refuge
00:19:43.223 : en:Intruders
00:23:27.280 : en:Cj's Turf
00:26:35.594 : en:S.O.S.
00:33:07.026 : en:No More Room
00:42:28.045 : en:New Arrivals
00:47:35.853 : en:Kill Tucker, Too
00:56:29.511 : en:Sickness Rising
01:01:36.526 : en:Blackout
01:08:48.415 : en:Family Man
01:15:22.643 : en:Taking Action
01:20:17.103 : en:Saving Andy
01:24:15.133 : en:Nicole's Rescue
01:30:03.523 : en:Run!
01:33:27.560 : en:Escape
01:39:47.690 : en:Valor
01:44:36.770 : en:End Titles/Hope

pb.wtf



Скачать Рассвет мертвецов через торрент http://pic.kartinco.top/images/1/heic3m48am.jpg Скачать фильм Рассвет мертвецов через торрент бесплантно в хорошем качестве Описание: В то время, как Америка содрогается от внезапного нашествия миллионов мертвецов, маленькая группа уцелевших людей пытаются найти ... 10 10 2
Info! Золотая раздача, скачанное не засчитывается.
Торрент: Зарегистрирован [2012-07-10 18:14] · скачан: 207 раз
Статус: √ проверено
Размер: 9.23 GB
Как cкачать? Как скачать Рассвет мертвецов через торрент | qTorrent

% Раздел Тема Автор DL S | L
Фильмы (Blu-ray, BD-Remux, HDDVD) [ 27.64 GB ] Рассвет мертвецов / Dawn of the Dead [2004 BDRemux 1080p] DUB + MVO + 2xAVO [Режиссерская версия] sheker187 Скачать
1 | 0
Фильмы [HD 720p, 1080p] (Хороший звук DUB, MVO) [ 7.76 GB ] Рассвет мертвецов / Dawn Of The Dead [1978 BDRip 720p от еnvy / NNNB] Extended Cut | MVO AVO VO еnvy Скачать
2 | 1
Фильмы [HD 720p, 1080p] (Хороший звук DUB, MVO) [ 11.55 GB ] Рассвет мертвецов / Dawn Of The Dead [1978 BDRip 1080p от _denis_100] MVO 3xAVO _denis_100 Скачать
1 | 0
Фильмы 2001-2005 [ 1.45 GB ] Рассвет мертвецов / Dawn of the Dead [2004 HDRip лицензия] Sудья Скачать
2 | 0
Фильмы 2001-2005 [ 702 MB ] Рассвет мертвецов / Dawn of the Dead [2004 DVDRip пиратка] Nikolaychik Скачать
1 | 0

28-11-2019 20:33  

Отключить всю рекламу на сайте

10-07-2012 18:31 Рассвет мертвецов Скачать торрент  

по моему самый лучший фильм про зомбиpb.wtf



10-07-2012 18:56 Рассвет мертвецов Скачать торрент  

Надо бы глянуть... СпасибО)pb.wtf



10-07-2012 20:40 Рассвет мертвецов Скачать торрент  

Когда же чего нибудь наподоме будетpb.wtf



11-07-2012 05:56 Рассвет мертвецов Скачать торрент  

100% лучший фильм в своём жанре!pb.wtf



11-07-2012 06:39 Рассвет мертвецов Скачать торрент  

Не могу сказать ,что люблю тему зомби:troll:,но этот фильм классный!Спасибо за релиз!!! :good:pb.wtf



    Дорогой пользователь! Огромная просьба, поблагодарите релизера, оцените раздачу и оставьте свои комментарий, если Вы скачали Рассвет мертвецов через торрент бесплатно! Внесите свою лепту в развитие PiratBit!
    Комментировать посты могут только пользователи прошедшие не сложную регистрацию
    Показать сообщения:    

    Рассвет мертвецов через торрент
    Скачать бесплатно Рассвет мертвецов
    Рассвет мертвецов скачать торрент
    Рассвет мертвецов смотреть онлайн
    Cкачать фильм Рассвет мертвецов бесплатно
    Рассвет мертвецов скачать торрент в хорошем качестве
    Рассвет мертвецов смотреть онлайн бесплатно в хорошем качестве


    Вы не можете начинать темы
    Вы не можете отвечать на сообщения
    Вы не можете редактировать свои сообщения
    Вы не можете удалять свои сообщения
    Вы не можете голосовать в опросах
    Вы не можете прикреплять файлы к сообщениям
    Вы можете скачивать файлы