2 сезон

iTunes

MVO

1

2 сезон

iTunes

iTunes

1 сезон

RePack

30

Новинка

ВАЖНО

ИГРА 18+

pack

RePack

MK11
pack

Легкие деньги

RePack

jed

RePack

fifa19

RePack

RDR2

RePack

NEED FOR SPEED™ PAYBACK

4 сезон

9 сезон

Бесстыжие 9 сезон

Все сериалы

все сериалы на PB.wtf

RePack

FAR CRY 5

Anonymous, добрый вечер, мы не успеваем собрать деньги на оплату серверов за декабрь и январь, помогите нам пожалуйста в это трудное время. В качестве благодарности мы отключим Вам всю рекламу на сайте (укажите свой ник в строку Ваше имя)!

×
  
Magnet ссылка

Неоновая плоть / Carne de neon (Пако Кабезас / Paco Cabezas) [2010, триллер, драма, комедия, криминал, DVD9] R5 pb.wtf

Неоновая плоть через торрент pb.wtf

Размер: 7.1 GB | Добавлен: 8 лет 6 мес. назад | Торрент скачан:45 раз
Скачать  

10-07-2012 18:45 Неоновая плоть Скачать торрент  


Неоновая плоть / Carne de neon
Страна: Швеция, Франция, Испания, Аргентина
Студия: Carne de Neón, Film i Väst, Hepp Film, Jaleo Films S.L., Mandarin Films, Morena Films S.L., Oberón Cinematográfica S.A., Pensa & Rocca Producciones
Жанр: триллер, драма, комедия, криминал
Год выпуска: 2010
Мировая премьера: 9 октября 2010
Российская премьера: 1 декабря 2011
Дата выхода DVD: 11 июля 2012
Продолжительность: 01:41:50
Перевод: Профессиональный (многоголосый закадровый) [Лицензия]
Cубтитры: русские
Оригинальная аудиодорожка: испанский
Режиссер: Пако Кабезас / Paco Cabezas
В ролях: Марио Касас, Винсент Ромеро, Лусиано Касерес, Макарена Гомес, Дамасо Конде, Ванесса Оливейра, Дарио Грандинетти, Бланка Суарес, Антонио де ла Торре, Анхела Молина
Описание: Рики вырос на улице в окружении проституток и наркоманов, после того как остался один в двенадцатилетнем возрасте. Теперь ему 23 года и он решает открыть бордель, клуб под названием «Хиросима», в качестве подарка матери проститутке, которая вот-вот выйдет из тюрьмы. Рики хочет, чтобы Пура руководила клубом и забыла о своем прошлом продажной женщины. В этом ему помогают многочисленные друзья, порой весьма эксцентричные. Рики пытается пробудить материнские чувства и любовь в душе Пуры, которая бросила его много лет назад. Однако добиться этого оказывается не так просто.
Бонусы: Нет

Релиз группы:
Качество: DVD9 R5
Формат: DVD-Video
Видео кодек: MPEG2
Аудио кодек: AC3
Видео: PAL 16:9 (720x576(0.818)) MPEG Video, 25,000 кадр/сек, 8483 Кбит/сек
Аудио #1: Russian (Dolby AC3, 6 ch) 384 Кбит/сек, 48,0 КГц
Аудио #2: Russian (Dolby AC3, 2 ch) 192 Кбит/сек, 48,0 КГц
Аудио #3: Espanol (Dolby AC3, 6 ch) 384 Кбит/сек, 48,0 КГц



Title:
Size: 7.10 Gb ( 7 444 890 KBytes ) - DVD-9
Enabled regions: 1, 2, 3, 4, 5, 6, 7, 8

VTS_01 :
Play Length: 00:00:01+01:41:50
Video: PAL 16:9 (720x576) VBR, Auto Letterboxed
Audio:
Russian (Dolby AC3, 6 ch)
Russian (Dolby AC3, 2 ch)
Espanol (Dolby AC3, 6 ch)
Subtitles:
Russian

VTS_02 :
Play Length: 00:00:01+00:00:05+00:00:13
Video: PAL 16:9 (720x576) VBR, Auto Letterboxed
Audio:
Russian (Dolby AC3, 6 ch)

Menu Video:
NTSC 4:3 (720x480) VBR
Auto Pan&Scan, Auto Letterboxed
Menu Russian Language Unit :
Root Menu
Angle menu
Общее
Полное имя : J:\Новинки 2012\Neonovaya.plot.2010.DVD9\VIDEO_TS\VTS_01_1.VOB
Формат : MPEG-PS
Размер файла : 1024 Мбайт
Продолжительность : 14 м.
Общий поток : 9700 Кбит/сек

Видео
Идентификатор : 224 (0xE0)
Формат : MPEG Video
Версия формата : Version 2
Профиль формата : Main@Main
Параметр BVOP формата : Да
Параметр матрицы формата : Выборочная
Продолжительность : 14 м.
Битрейт : 8483 Кбит/сек
Максимальный битрейт : 6000 Кбит/сек
Ширина : 720 пикселей
Высота : 576 пикселей
Соотношение сторон : 16:9
Частота кадров : 25,000 кадров/сек
Стандарт вещания : PAL
Цветовое пространство : YUV
Субдискретизация насыщенности : 4:2:0
Битовая глубина : 8 бит
Тип развёртки : Чересстрочная
Порядок развёртки : Нижнее поле первое
Метод сжатия : С потерями
Бит/(Пиксели*Кадры) : 0.818
Размер потока : 896 Мбайт (87%)

Аудио #1
Идентификатор : 189 (0xBD)-128 (0x80)
Формат : AC-3
Формат/Информация : Audio Coding 3
Расширение режима : CM (complete main)
Параметр Endianness формата : Big
Режим смешивания : DVD-Video
Продолжительность : 14 м.
Вид битрейта : Постоянный
Битрейт : 384 Кбит/сек
Каналы : 6 каналов
Расположение каналов : Front: L C R, Side: L R, LFE
Частота : 48,0 КГц
Битовая глубина : 16 бит
Метод сжатия : С потерями
Размер потока : 40,5 Мбайт (4%)

Аудио #2
Идентификатор : 189 (0xBD)-129 (0x81)
Формат : AC-3
Формат/Информация : Audio Coding 3
Расширение режима : CM (complete main)
Параметр Endianness формата : Big
Режим смешивания : DVD-Video
Продолжительность : 14 м.
Вид битрейта : Постоянный
Битрейт : 192 Кбит/сек
Каналы : 2 канала
Расположение каналов : Front: L R
Частота : 48,0 КГц
Битовая глубина : 16 бит
Метод сжатия : С потерями
Размер потока : 20,3 Мбайт (2%)

Аудио #3
Идентификатор : 189 (0xBD)-130 (0x82)
Формат : AC-3
Формат/Информация : Audio Coding 3
Расширение режима : CM (complete main)
Параметр Endianness формата : Big
Режим смешивания : DVD-Video
Продолжительность : 14 м.
Вид битрейта : Постоянный
Битрейт : 448 Кбит/сек
Каналы : 6 каналов
Расположение каналов : Front: L C R, Side: L R, LFE
Частота : 48,0 КГц
Битовая глубина : 16 бит
Метод сжатия : С потерями
Размер потока : 47,3 Мбайт (5%)

Текст
Идентификатор : 189 (0xBD)-32 (0x20)
Формат : RLE
Формат/Информация : Run-length encoding
Режим смешивания : DVD-Video










pb.wtf



Скачать Неоновая плоть через торрент http://i40.fastpic.ru/big/2012/0710/32/3f9f47e7b9504b49a203f97464392932.jpg Скачать фильм Неоновая плоть через торрент бесплантно в хорошем качестве Описание: Рики вырос на улице в окружении проституток и наркоманов, после того как остался один в двенадцатилетнем возрасте. Теперь ему 23 ... 5 10 1
Info! Золотая раздача, скачанное не засчитывается.
Торрент: Зарегистрирован [2012-07-10 18:45] · скачан: 45 раз
Статус: √ проверено
Размер: 7.1 GB
Как cкачать? Как скачать Неоновая плоть через торрент | UTorrent

28-11-2019 20:33  

Отключить всю рекламу на сайте

10-07-2012 20:47 Неоновая плоть Скачать торрент  

Бред pb.wtf



11-07-2012 05:53 Неоновая плоть Скачать торрент  

Да ладно, бред конечно, но один раз посмотреть можно. Даже посмеяться есть где.pb.wtf



11-07-2012 21:04 Неоновая плоть Скачать торрент  

Очень убогий фильм... Не рекомендую... pb.wtf



14-07-2012 05:46 Неоновая плоть Скачать торрент  

очень даже не плохой фильм...Рекомендую :good2:pb.wtf



    Дорогой пользователь! Огромная просьба, поблагодарите релизера, оцените раздачу и оставьте свои комментарий, если Вы скачали Неоновая плоть через торрент бесплатно! Внесите свою лепту в развитие PiratBit!
    Комментировать посты могут только пользователи прошедшие не сложную регистрацию
    Показать сообщения:    

    Неоновая плоть через торрент
    Скачать бесплатно Неоновая плоть
    Неоновая плоть скачать торрент
    Неоновая плоть смотреть онлайн
    Cкачать фильм Неоновая плоть бесплатно
    Неоновая плоть скачать торрент в хорошем качестве
    Неоновая плоть смотреть онлайн бесплатно в хорошем качестве


    Вы не можете начинать темы
    Вы не можете отвечать на сообщения
    Вы не можете редактировать свои сообщения
    Вы не можете удалять свои сообщения
    Вы не можете голосовать в опросах
    Вы не можете прикреплять файлы к сообщениям
    Вы можете скачивать файлы