Всегда рабочее зеркало без VPN и Proxy просто перед .vidak.icu напиши любое слово или цифру, Пример http://g1ub.vidak.icu

MVO

2 сезон

1 сезон

1

1 сезон

iTunes

2 сезон

13

1 сезон

Распродажа

pack

Рекомендуем

Пиратка

30

ВАЖНО

RePack

MK11

RePack

jed

RePack

fifa19

RePack

RDR2

RePack

NEED FOR SPEED™ PAYBACK

Кинопоиск HD

6 сезон

 Острые козырьки 6 сезон

Все сериалы

все сериалы на PB.wtf

RePack

FAR CRY 5

Anonymous, нам критически не хватает 5601 руб. на оплату серверов и переферии за Апрель, помоги нам пожалуйста, вся надежда только на тебя. В благодарность мы отключим тебе всю рекламу на сайте!

×
  
Magnet ссылка

Терминатор: Да придёт спаситель / Terminator Salvation (МакДжи) [2009 г., фантастика, боевик, триллер, драма, BDRip (720p), DUB ] pb.wtf

Терминатор: Да придёт спаситель через торрент pb.wtf

Размер: 5.84 GB | Добавлен: 9 лет назад | Торрент скачан:927 раз
Смотреть онлайн Терминатор: Да придёт спаситель | Скачать    Ребята, помогите собрать деньги на оплату серверов!!!

10-07-2012 18:54 Терминатор: Да придёт спаситель Скачать торрент  

Терминатор: Да придёт спаситель / Terminator Salvation

Год выпуска: 2009
Страна: США, Германия, Великобритания, Италия
Жанр: фантастика, боевик, триллер, драма
Продолжительность: 01:57:31
Перевод: Дубляж
Субтитры: Русские, английские
Режиссер: МакДжи
Продюссер: Виктор Кубичек, Джеффри Сильвер, Дерек Андерсон
Сценарий: Джон Д. Бранкато, Майкл Феррис
Бюджет: $200 000 000
Премьера в мире: 14 мая 2009
В ролях: Кристиан Бэйл, Сэм Уортингтон, Антон Ельчин, Мун Бладгуд, Брайс Даллас Ховард, Коммон, Джейн Александр, Майкл Айронсайд, Иван Г’Вера, Крис Браунинг, Хелена Бонем Картер, Джадагрейс, Дориан Нконо, Бет Бэйли, Виктор Дж. Хо, Бастер Ривз, Кевин Уиггинс, Грег Серано, По Чан, Бабак Тафти, Брюс МакИнтош, Трева Этьен, Дилан Кенин, Майкл Пападжон, Крис Эшворт, Диего Хоакин Лопес, Грег Плитт, Омар Пас Тружильо
Описание: 2018 год от рождества Христова. Джон Коннор — человек, чья судьба — возглавить Сопротивление электронному мозгу Скайнет и армии Терминаторов. Но в будущее, с верой в которое он возвращен, вклинивается таинственный Маркус Райт: незнакомец, чьи последние воспоминания рисуют камеру смертников. Коннор должен понять, кто такой Маркус — посланник будущего или спасшийся из прошлого. И на фоне подготовки Скайнетом решающего удара, Коннор и Райт отправляются в путешествие, приводящее их в самую сердцевину взбунтовавшейся операционной системы, где открывается ужасная тайна, кроющаяся за потенциальным уничтожением человечества.
Качество: BDRip (720p)
Формат: MKV
Видео кодек:H.264x
Аудио кодек:AC-3
Видео: AVC at 4288 Кбит/сек : 1280 x 534 (2.397) at 23.976 fps
Аудио#1: AC-3 at 448 Кбит/сек : 6 каналов, 48,0 КГц Дублированный
Аудио#2: AC-3 at 448 Кбит/сек: 6 каналов, 48,0 КГц Профессиональный многоголосый
Аудио#3: AC-3 at 448 Кбит/сек: 6 каналов, 48,0 КГц Авторский одноголосый (Гаврилов)
Аудио#4: AC-3 at 448 Кбит/сек : 6 каналов, 48,0 КГц Авторский одноголосый (Горчаков)
Аудио #5 Русский (AC3, 6 ch, 448 Кбит/сек) Авторский одноголосый (Сербин)
Аудио #6 Английский (AC3, 6 ch, 448 Кбит/сек)
Текст #1 Русские (S_TEXT/UTF8) 1-я версия
Текст #2 Русские (S_TEXT/UTF8) 2-я версия
Текст #3 Английские (S_TEXT/UTF8) 1-я версия
Текст #4 Английские (S_TEXT/UTF8) 2-я версия


Уникальный идентификатор : 204255667672940906363863698335806794237 (0x99AA35EE5A1AE967AF8DF18A9BE829FD)
Полное имя : C:\Documents and Settings\Admin\Рабочий стол\торы\Terminator.Da.pridet.spasitel.2009.x264.BDRip.720p.mkv
Формат : Matroska
Размер файла : 5,84 Гбайт
Продолжительность : 1 ч. 57 м.
Общий поток : 7118 Кбит/сек
Название фильма : Terminator 3 Rise of the Machines
Дата кодирования : UTC 2012-07-09 00:42:44
Программа кодирования : mkvmerge v5.6.0 ('Kenya Kane') built on May 27 2012 16:44:04
Библиотека кодирования : libebml v1.2.3 + libmatroska v1.3.0

Видео
Идентификатор : 1
Формат : AVC
Формат/Информация : Advanced Video Codec
Профиль формата : High@L4.1
Параметр CABAC формата : Да
Параметр ReFrames формата : 12 кадров
Идентификатор кодека : V_MPEG4/ISO/AVC
Продолжительность : 1 ч. 57 м.
Битрейт : 4288 Кбит/сек
Ширина : 1280 пикс.
Высота : 534 пикс.
Соотношение сторон : 2,35:1
Частота кадров : 23,976 кадр/сек
Цветовое пространство : YUV
Подвыборка цветности : 4:2:0
Битовая глубина : 8 бит
Тип развёртки : Прогрессивная
Бит/(Пиксели*Кадры) : 0.262
Размер потока : 3,52 Гбайт (60%)
Заголовок : Terminator Salvation[Director's Cut]
Библиотека кодирования : x264 core 92 r1510 33d382a
Настройки программы : cabac=1 / ref=12 / deblock=1:-2:-2 / analyse=0x3:0x133 / me=umh / subme=9 / psy=1 / psy_rd=1.20:0.00 / mixed_ref=1 / me_range=64 / chroma_me=1 / trellis=2 / 8x8dct=1 / cqm=0 / deadzone=21,11 / fast_pskip=0 / chroma_qp_offset=-2 / threads=9 / sliced_threads=0 / nr=0 / decimate=1 / interlaced=0 / constrained_intra=0 / bframes=16 / b_pyramid=2 / b_adapt=2 / b_bias=0 / direct=3 / wpredb=1 / wpredp=2 / keyint=250 / keyint_min=25 / scenecut=40 / intra_refresh=0 / rc_lookahead=60 / rc=crf / mbtree=0 / crf=19.1 / qcomp=0.60 / qpmin=10 / qpmax=51 / qpstep=4 / vbv_maxrate=50000 / vbv_bufsize=50000 / crf-max=0.000000 / ip_ratio=1.40 / pb_ratio=1.30 / aq=1:1.20 / nal_hrd=none
Язык : English

Аудио #1
Идентификатор : 2
Формат : AC-3
Формат/Информация : Audio Coding 3
Расширение режима : CM (complete main)
Идентификатор кодека : A_AC3
Продолжительность : 1 ч. 57 м.
Вид битрейта : Постоянный
Битрейт : 448 Кбит/сек
Каналы : 6 каналов
Расположение каналов : Front: L C R, Side: L R, LFE
Частота : 48,0 КГц
Битовая глубина : 16 бит
Метод сжатия : С потерями
Размер потока : 377 Мбайт (6%)
Заголовок : DD 5.1 48 KHz 448 kbps[Dub]
Язык : Russian

Аудио #2
Идентификатор : 3
Формат : AC-3
Формат/Информация : Audio Coding 3
Расширение режима : CM (complete main)
Идентификатор кодека : A_AC3
Продолжительность : 1 ч. 57 м.
Вид битрейта : Постоянный
Битрейт : 448 Кбит/сек
Каналы : 6 каналов
Расположение каналов : Front: L C R, Side: L R, LFE
Частота : 48,0 КГц
Битовая глубина : 16 бит
Метод сжатия : С потерями
Размер потока : 377 Мбайт (6%)
Заголовок : DD 5.1 48 KHz 448 kbps[MVO]
Язык : Russian

Аудио #3
Идентификатор : 4
Формат : AC-3
Формат/Информация : Audio Coding 3
Расширение режима : CM (complete main)
Идентификатор кодека : A_AC3
Продолжительность : 1 ч. 57 м.
Вид битрейта : Постоянный
Битрейт : 448 Кбит/сек
Каналы : 6 каналов
Расположение каналов : Front: L C R, Side: L R, LFE
Частота : 48,0 КГц
Битовая глубина : 16 бит
Метод сжатия : С потерями
Размер потока : 377 Мбайт (6%)
Заголовок : DD 5.1 48 KHz 448 kbps[AVO]-Gavrilov
Язык : Russian

Аудио #4
Идентификатор : 5
Формат : AC-3
Формат/Информация : Audio Coding 3
Расширение режима : CM (complete main)
Идентификатор кодека : A_AC3
Продолжительность : 1 ч. 57 м.
Вид битрейта : Постоянный
Битрейт : 448 Кбит/сек
Каналы : 6 каналов
Расположение каналов : Front: L C R, Side: L R, LFE
Частота : 48,0 КГц
Битовая глубина : 16 бит
Метод сжатия : С потерями
Размер потока : 377 Мбайт (6%)
Заголовок : DD 5.1 48 KHz 448 kbps[AVO]-Gorchakov
Язык : Russian

Аудио #5
Идентификатор : 6
Формат : AC-3
Формат/Информация : Audio Coding 3
Расширение режима : CM (complete main)
Идентификатор кодека : A_AC3
Продолжительность : 1 ч. 57 м.
Вид битрейта : Постоянный
Битрейт : 448 Кбит/сек
Каналы : 6 каналов
Расположение каналов : Front: L C R, Side: L R, LFE
Частота : 48,0 КГц
Битовая глубина : 16 бит
Метод сжатия : С потерями
Размер потока : 377 Мбайт (6%)
Заголовок : DD 5.1 48 KHz 448 kbps[AVO]-Serbin
Язык : Russian

Аудио #6
Идентификатор : 7
Формат : AC-3
Формат/Информация : Audio Coding 3
Расширение режима : CM (complete main)
Идентификатор кодека : A_AC3
Продолжительность : 1 ч. 57 м.
Вид битрейта : Постоянный
Битрейт : 448 Кбит/сек
Каналы : 6 каналов
Расположение каналов : Front: L C R, Side: L R, LFE
Частота : 48,0 КГц
Битовая глубина : 16 бит
Метод сжатия : С потерями
Размер потока : 377 Мбайт (6%)
Заголовок : DD 5.1 48 KHz 448 kbps[Original]
Язык : English

Текст #1
Идентификатор : 8
Формат : UTF-8
Идентификатор кодека : S_TEXT/UTF8
Идентификатор кодека/Информация : UTF-8 Plain Text
Заголовок : Forced
Язык : Russian

Текст #2
Идентификатор : 9
Формат : UTF-8
Идентификатор кодека : S_TEXT/UTF8
Идентификатор кодека/Информация : UTF-8 Plain Text
Заголовок : Full
Язык : Russian

Текст #3
Идентификатор : 10
Формат : UTF-8
Идентификатор кодека : S_TEXT/UTF8
Идентификатор кодека/Информация : UTF-8 Plain Text
Заголовок : Original
Язык : English

Текст #4
Идентификатор : 11
Формат : UTF-8
Идентификатор кодека : S_TEXT/UTF8
Идентификатор кодека/Информация : UTF-8 Plain Text
Заголовок : Original SDH
Язык : English

pb.wtf



Скачать Терминатор: Да придёт спаситель через торрент https://pic1.kartinco.top/images/111/g2hh2g65k3.jpg Скачать, смотреть онлайн Терминатор: Да придёт спаситель бесплантно в хорошем качестве Описание: 2018 год от рождества Христова. Джон Коннор — человек, чья судьба — возглавить Сопротивление электронному мозгу Скайнет и армии ... 10 10 12
Info! Золотая раздача, скачанное не засчитывается.
Торрент: Зарегистрирован [2012-07-10 18:54] · скачан: 927 раз
Статус: √ проверено
Размер: 5.84 GB
Как cкачать? Как скачать Терминатор: Да придёт спаситель через торрент | UTorrent

% Раздел Тема Автор DL S | L
Ultra HD (UHD: 2K, 4K, 8K) — видео сверхвысокой чёткости [ 27.89 GB ] Терминатор: Да придёт спаситель / Terminator Salvation [2009 UHD BDRip 2160p] [SDR] DUB [] bober100 Скачать
1 | 0
Ultra HD (UHD: 2K, 4K, 8K) — видео сверхвысокой чёткости [ 15.34 GB ] Терминатор: Да придёт спаситель / Terminator Salvation [2009 UHD BDRip 2160p] DUB [] bober100 Скачать
1 | 1
Ultra HD (UHD: 2K, 4K, 8K) — видео сверхвысокой чёткости [ 41.13 GB ] Терминатор: Да придёт спаситель / Terminator Salvation [2009 UHD BDRemux 2160p] DUB [] bober100 Скачать
2 | 0
Фильмы 2009 [ 1.37 GB ] Терминатор: Да придёт спаситель / Terminator Salvation [2009 DVDRip] DUB paul08 Скачать
1 | 0

28-11-2019 20:33  

Отключить всю рекламу на сайте

10-07-2012 20:42 Терминатор: Да придёт спаситель Скачать торрент  

Этот фильм как глоток воздухаpb.wtf



11-07-2012 05:48 Терминатор: Да придёт спаситель Скачать торрент  

Что-то вообще не помню этот фильм....pb.wtf



    Дорогой пользователь! Огромная просьба, поблагодарите релизера, оцените раздачу и оставьте свои комментарий, если Вы скачали Терминатор: Да придёт спаситель через торрент бесплатно!
    Комментировать посты могут только пользователи прошедшие не сложную регистрацию
    Показать сообщения:    

    Терминатор: Да придёт спаситель через торрент
    Скачать бесплатно Терминатор: Да придёт спаситель
    Терминатор: Да придёт спаситель скачать торрент
    Терминатор: Да придёт спаситель смотреть онлайн
    Cкачать фильм Терминатор: Да придёт спаситель бесплатно
    Терминатор: Да придёт спаситель скачать торрент в хорошем качестве
    Терминатор: Да придёт спаситель смотреть онлайн бесплатно в хорошем качестве


    Вы не можете начинать темы
    Вы не можете отвечать на сообщения
    Вы не можете редактировать свои сообщения
    Вы не можете удалять свои сообщения
    Вы не можете голосовать в опросах
    Вы не можете прикреплять файлы к сообщениям
    Вы можете скачивать файлы